1 сезон

3 сезон

iTunes

1

iTunes

DUB Netflix

iTunes

13

1 сезон

RePack

30

Deluxe

pack

Легкие деньги

ВАЖНО

ИГРА 18+

pack

RePack

MK11

RePack

jed

RePack

fifa19

RePack

RDR2

RePack

NEED FOR SPEED™ PAYBACK

4 сезон

9 сезон

Бесстыжие 9 сезон

Все сериалы

все сериалы на PB.wtf

RePack

FAR CRY 5

Anonymous, доброе утро, мы не успеваем до 1 числа собрать деньги на оплату серверов, помогите нам пожалуйста в это трудное время. В качестве благодарности мы отключим Вам всю рекламу на сайте (укажите свой ник в строку Ваше имя)!

×
  
Magnet ссылка

22 против Земли / 22 vs. Earth (Кевин Нолтинг) [2021 г., Мультфильм, фэнтези, комедия, приключения, семейный, музыка, WEB-DL 1080p] [MVO] (HDrezka Studio) pb.wtf

22 против Земли через торрент pb.wtf

Раздают: 26 [ 8 KB/s ]
Размер: 267 MB | Добавлен: 1 мес. 7 д. назад | Торрент скачан:169 раз
Скачать  

07-05-2021 09:23 22 против Земли Скачать торрент  

22 против Земли / 22 vs. Earth
Год выпуска: 2021
Страна: США
Жанр: мультфильм, фэнтези, комедия, приключения
Продолжительность: 00:05:37
Перевод: Профессиональный (многоголосый) *HDrezka Studio
Субтитры: Russian (Forced), English (SDH), German, Spanish, Polish, etc.

Режиссер: Кевин Нолтинг

В ролях: Тина Фей, Ричард Айоаде, Алиса Брага

Описание: Действие разворачивается перед событиями «Души», 22 нарушает правила и отказывается отправиться на Землю, заручившись поддержкой банды из пяти других новых душ в своей попытке восстания. Однако деятельность ее соратников приводит к неожиданным результатам...

rating

Качество видео: WEB-DL 1080p
Формат видео: MKV
Видео: AVC, 1920x1080 (16:9), 23.976 fps, 5 282 Kbps
Аудио #1: 48 kHz, AC3 Dolby Digital, 3/2 (L,C,R,l,r) + LFE ch, 448 kbps Russian | HDrezka Studio
Аудио #2: 48 kHz, E-AC-3, 3/2 (L,C,R,l,r) + LFE ch, 768 kbps English | Original
Формат субтитров: softsub (SRT)
скриншот   скриншот   скриншот   скриншот   скриншот   скриншот  
General
Unique ID : 171027146328092802579371788851746851349 (0x80AAA15784141A309A45F6FA4C3E4A15)
Complete name : G:\22 vs. Earth.2021.WEB-DL(1080p).[MVO] (HDRezka Studio).xz.mkv
Format : Matroska
Format version : Version 4 / Version 2
File size : 267 MiB
Duration : 5mn 37s
Overall bit rate mode : Variable
Overall bit rate : 6 630 Kbps
Movie name : 22 vs. Earth.2021.WEB-DL(1080p).[MVO] (HDRezka Studio).xz
Encoded date : UTC 2021-05-07 09:06:47
Writing application : mkvmerge v6.1.0 ('Old Devil') built on Mar 2 2013 14:32:37
Writing library : libebml v1.3.0 + libmatroska v1.4.0
DURATION : 00:05:26.368000000
NUMBER_OF_FRAMES : 107
NUMBER_OF_BYTES : 3191
_STATISTICS_WRITING_APP : mkvmerge v49.0.0 ('Sick Of Losing Soulmates') 64-bit
_STATISTICS_WRITING_DATE_UTC : 2021-04-30 07:29:52
_STATISTICS_TAGS : BPS DURATION NUMBER_OF_FRAMES NUMBER_OF_BYTES

Video
ID : 1
Format : AVC
Format/Info : Advanced Video Codec
Format profile : High@L4
Format settings, CABAC : Yes
Format settings, ReFrames : 4 frames
Codec ID : V_MPEG4/ISO/AVC
Duration : 5mn 37s
Bit rate mode : Variable
Bit rate : 5 282 Kbps
Maximum bit rate : 12.7 Mbps
Width : 1 920 pixels
Height : 1 080 pixels
Display aspect ratio : 16:9
Frame rate mode : Constant
Frame rate : 23.976 fps
Color space : YUV
Chroma subsampling : 4:2:0
Bit depth : 8 bits
Scan type : Progressive
Bits/(Pixel*Frame) : 0.106
Stream size : 212 MiB (80%)
Title : 22 vs. Earth.2021.WEB-DL(1080p).[MVO] (HDRezka Studio).xz
Default : Yes
Forced : No
Color range : Limited
Color primaries : BT.709
Transfer characteristics : BT.709
Matrix coefficients : BT.709

Audio #1
ID : 2
Format : AC-3
Format/Info : Audio Coding 3
Mode extension : CM (complete main)
Format settings, Endianness : Big
Codec ID : A_AC3
Duration : 5mn 37s
Bit rate mode : Constant
Bit rate : 448 Kbps
Channel(s) : 6 channels
Channel positions : Front: L C R, Side: L R, LFE
Sampling rate : 48.0 KHz
Compression mode : Lossy
Stream size : 18.0 MiB (7%)
Title : HDRezka Studio
Language : Russian
Default : Yes
Forced : No

Audio #2
ID : 3
Format : E-AC-3
Format/Info : Audio Coding 3
Format settings, Endianness : Big
Codec ID : A_EAC3
Duration : 5mn 37s
Bit rate mode : Constant
Bit rate : 768 Kbps
Channel(s) : 6 channels
Channel positions : Front: L C R, Side: L R, LFE
Sampling rate : 48.0 KHz
Compression mode : Lossy
Stream size : 30.9 MiB (12%)
Title : English
Language : English
Default : No
Forced : No

Text #1
ID : 4
Format : UTF-8
Codec ID : S_TEXT/UTF8
Codec ID/Info : UTF-8 Plain Text
Title : rus (forced)
Language : Russian
Default : Yes
Forced : No

Text #2
ID : 5
Format : UTF-8
Codec ID : S_TEXT/UTF8
Codec ID/Info : UTF-8 Plain Text
Title : French
Language : French
Default : No
Forced : No

Text #3
ID : 6
Format : UTF-8
Codec ID : S_TEXT/UTF8
Codec ID/Info : UTF-8 Plain Text
Title : English [SDH]
Language : English
Default : No
Forced : No

Text #4
ID : 7
Format : UTF-8
Codec ID : S_TEXT/UTF8
Codec ID/Info : UTF-8 Plain Text
Title : German
Language : German
Default : No
Forced : No

Text #5
ID : 8
Format : UTF-8
Codec ID : S_TEXT/UTF8
Codec ID/Info : UTF-8 Plain Text
Title : Dutch
Language : Dutch
Default : No
Forced : No

Text #6
ID : 9
Format : UTF-8
Codec ID : S_TEXT/UTF8
Codec ID/Info : UTF-8 Plain Text
Title : Polish
Language : Polish
Default : No
Forced : No

Text #7
ID : 10
Format : UTF-8
Codec ID : S_TEXT/UTF8
Codec ID/Info : UTF-8 Plain Text
Title : Spanish
Language : Spanish
Default : No
Forced : No

Text #8
ID : 11
Format : UTF-8
Codec ID : S_TEXT/UTF8
Codec ID/Info : UTF-8 Plain Text
Title : English
Language : English
Default : No
Forced : No

Text #9
ID : 12
Format : UTF-8
Codec ID : S_TEXT/UTF8
Codec ID/Info : UTF-8 Plain Text
Title : Danish
Language : Danish
Default : No
Forced : No

Text #10
ID : 13
Format : UTF-8
Codec ID : S_TEXT/UTF8
Codec ID/Info : UTF-8 Plain Text
Title : Italian
Language : Italian
Default : No
Forced : No

Text #11
ID : 14
Format : UTF-8
Codec ID : S_TEXT/UTF8
Codec ID/Info : UTF-8 Plain Text
Title : European Spanish
Language : Spanish
Default : No
Forced : No

Text #12
ID : 15
Format : UTF-8
Codec ID : S_TEXT/UTF8
Codec ID/Info : UTF-8 Plain Text
Title : Portuguese
Language : Portuguese
Default : No
Forced : No

Text #13
ID : 16
Format : UTF-8
Codec ID : S_TEXT/UTF8
Codec ID/Info : UTF-8 Plain Text
Title : Norwegian
Language : Norwegian
Default : No
Forced : No

Text #14
ID : 17
Format : UTF-8
Codec ID : S_TEXT/UTF8
Codec ID/Info : UTF-8 Plain Text
Title : Swedish
Language : Swedish
Default : No
Forced : No

Text #15
ID : 18
Format : UTF-8
Codec ID : S_TEXT/UTF8
Codec ID/Info : UTF-8 Plain Text
Title : Brazilian Portuguese
Language : Portuguese
Default : No
Forced : No

Text #16
ID : 19
Format : UTF-8
Codec ID : S_TEXT/UTF8
Codec ID/Info : UTF-8 Plain Text
Title : French Canadian
Language : French
Default : No
Forced : No

Text #17
ID : 20
Format : UTF-8
Codec ID : S_TEXT/UTF8
Codec ID/Info : UTF-8 Plain Text
Title : Finnish
Language : Finnish
Default : No
Forced : No
pb.wtf



Скачать 22 против Земли через торрент https://i3.imageban.ru/out/2021/05/07/8b91d43b7ba37ba2a470b8c44ab37686.jpg Скачать фильм 22 против Земли через торрент бесплантно в хорошем качестве Описание: Действие разворачивается перед событиями «Души», 22 нарушает правила и отказывается отправиться на Землю, заручившись поддержкой ... 10 10 8
Info! Золотая раздача, скачанное не засчитывается.
Торрент: Зарегистрирован [2021-05-07 09:43] · скачан: 169 раз
Статус: √ проверено
Размер: 267 MB
Как cкачать? Как скачать 22 против Земли через торрент | UTorrent

28-11-2019 20:33  

Отключить всю рекламу на сайте

    Дорогой пользователь! Огромная просьба, поблагодарите релизера, оцените раздачу и оставьте свои комментарий, если Вы скачали 22 против Земли через торрент бесплатно! Внесите свою лепту в развитие PiratBit!
    Комментировать посты могут только пользователи прошедшие не сложную регистрацию
    Показать сообщения:    

    22 против Земли через торрент
    Скачать бесплатно 22 против Земли
    22 против Земли скачать торрент
    22 против Земли смотреть онлайн
    Cкачать фильм 22 против Земли бесплатно
    22 против Земли скачать торрент в хорошем качестве
    22 против Земли смотреть онлайн бесплатно в хорошем качестве


    Вы не можете начинать темы
    Вы не можете отвечать на сообщения
    Вы не можете редактировать свои сообщения
    Вы не можете удалять свои сообщения
    Вы не можете голосовать в опросах
    Вы не можете прикреплять файлы к сообщениям
    Вы можете скачивать файлы