1 сезон

3 сезон

iTunes

1

iTunes

DUB Netflix

iTunes

13

1 сезон

RePack

30

Deluxe

pack

Легкие деньги

ВАЖНО

ИГРА 18+

pack

RePack

MK11

RePack

jed

RePack

fifa19

RePack

RDR2

RePack

NEED FOR SPEED™ PAYBACK

4 сезон

9 сезон

Бесстыжие 9 сезон

Все сериалы

все сериалы на PB.wtf

RePack

FAR CRY 5

Anonymous, добрый день, мы не успеваем до 1 числа собрать деньги на оплату серверов, помогите нам пожалуйста в это трудное время. В качестве благодарности мы отключим Вам всю рекламу на сайте (укажите свой ник в строку Ваше имя)!

×
  
Magnet ссылка

Наследие Юпитера / Jupiter's Legacy / Сезон: 1 / Серии: 1-8 из 8 (Крис Бирн) [2021, фантастика, фэнтези, боевик, драма, приключения, WEB-DL 1080p] [Dub] (SDI Media) pb.wtf

Наследие Юпитера через торрент pb.wtf

Раздают: 8 [ 6 KB/s ]
Размер: 12.06 GB | Добавлен: 1 мес. 12 д. назад | Торрент скачан:307 раз
Скачать  

07-05-2021 10:40 Наследие Юпитера Скачать торрент  

Наследие Юпитера / Jupiter's Legacy
Страна: США
Год выпуска: 2021
Жанр: фантастика, фэнтези, боевик, драма, приключения
Продолжительность: 45 мин.

Перевод: Профессиональный (дублированный) | SDI Media
Субтитры: Русские (Forced, Full), английские (SDH), немецкие, испанские, французкие, итальянские, португальские

Режиссёр: Крис Бирн, Шарлотта Брандстром, Марк Йобст, Стивен С. ДеНайт
В ролях: Джош Дюамель, Бен Дэниелс, Лесли Бибб, Елена Кампурис, Эндрю Хортон, Майк Вэйд, Мэтт Лантер, Дэвид Джулиан Хёрш, Теника Дэвис, Анна Акана, Тайлер Мэйн, Иэн Куинлен, Чейз Тан

Описание: Первое поколение супергероев получило невероятные способности в 1930-х и с тех пор стало символом надежды и порядка. Спустя десятилетия их по-прежнему уважают и почитают, но вот их потомков, которые стали суперзвездами, больше волнует слава, нежели спасение мира.

rating

Качество: WEB-DL 1080p
Контейнер: MKV
Видео: AVC, 1920x1080 (16:9), 23.976 fps, ~2652 kbps
Аудио №1: E-AC3, 48 kHz, 6 ch, 640 kbps
Аудио №2: E-AC3 JOC, 48 kHz, 6 ch, 768 kbps
01. При первых проблесках зари — By Dawn's Early Light
02. Бумага и камень — Paper and Stone
03. Красить солнцем облака — Painting the Clouds With Sunshine
04. Все черти здесь — All the Devils Are Here
05. Зачем делать добро? — What's the Use?
06. Закрой ей лицо — Cover Her Face
07. Все за одного — Omnes Pro Uno
08. Вот такой конец — How it All Ends
General
Unique ID : 62652168796897543711473786867524321264 (0x2F225E69757965AB39E18D62EF243FF0)
Complete name : Jupiters.Legacy.S01.1080p.NF.WEB-DL.DDP5.1.x264-EniaHD\\Jupiters.Legacy.S01E01.1080p.NF.WEB-DL.DDP5.1.x264-EniaHD.mkv
Format : Matroska
Format version : Version 4
File size : 1.35 GiB
Duration : 47 min 31 s
Overall bit rate mode : Variable
Overall bit rate : 4 063 kb/s
Movie name : Jupiter's Legacy S01E01 - EniaHD
Writing application : mkvmerge v56.1.0 ('My Friend') 64-bit
Writing library : libebml v1.4.2 + libmatroska v1.6.4

Video
ID : 1
Format : AVC
Format/Info : Advanced Video Codec
Format profile : Main@L4
Format settings : CABAC / 3 Ref Frames
Format settings, CABAC : Yes
Format settings, Reference fra : 3 frames
Codec ID : V_MPEG4/ISO/AVC
Duration : 47 min 31 s
Bit rate mode : Variable
Bit rate : 2 652 kb/s
Nominal bit rate : 3 830 kb/s
Maximum bit rate : 5 745 kb/s
Width : 1 920 pixels
Height : 1 080 pixels
Display aspect ratio : 16:9
Frame rate mode : Constant
Frame rate : 23.976 (24000/1001) FPS
Color space : YUV
Chroma subsampling : 4:2:0
Bit depth : 8 bits
Scan type : Progressive
Bits/(Pixel*Frame) : 0.053
Stream size : 902 MiB (65%)
Writing library : x264 core 148 r2722 1b0121b
Encoding settings : cabac=1 / ref=3 / deblock=1:0:0 / analyse=0x1:0x111 / me=umh / subme=10 / psy=1 / psy_rd=1.00:0.00 / mixed_ref=1 / me_range=24 / chroma_me=1 / trellis=2 / 8x8dct=0 / cqm=0 / deadzone=21,11 / fast_pskip=1 / chroma_qp_offset=-2 / threads=8 / lookahead_threads=1 / sliced_threads=0 / nr=0 / decimate=1 / interlaced=0 / bluray_compat=0 / stitchable=1 / constrained_intra=0 / bframes=2 / b_pyramid=0 / b_adapt=2 / b_bias=0 / direct=3 / weightb=1 / open_gop=0 / weightp=2 / keyint=250 / keyint_min=23 / scenecut=0 / intra_refresh=0 / rc_lookahead=48 / rc=2pass / mbtree=1 / bitrate=3830 / ratetol=1.0 / qcomp=0.50 / qpmin=6 / qpmax=51 / qpstep=4 / cplxblur=20.0 / qblur=0.5 / vbv_maxrate=5745 / vbv_bufsize=7660 / nal_hrd=vbr / filler=0 / ip_ratio=1.40 / aq=1:1.00
Default : Yes
Forced : No

Audio #1
ID : 2
Format : E-AC-3
Format/Info : Enhanced AC-3
Commercial name : Dolby Digital Plus
Codec ID : A_EAC3
Duration : 47 min 31 s
Bit rate mode : Constant
Bit rate : 640 kb/s
Channel(s) : 6 channels
Channel layout : L R C LFE Ls Rs
Sampling rate : 48.0 kHz
Frame rate : 31.250 FPS (1536 SPF)
Compression mode : Lossy
Stream size : 218 MiB (16%)
Language : Russian
Service kind : Complete Main
Default : Yes
Forced : No

Audio #2
ID : 3
Format : E-AC-3 JOC
Format/Info : Enhanced AC-3 with Joint Object Coding
Commercial name : Dolby Digital Plus with Dolby Atmos
Codec ID : A_EAC3
Duration : 47 min 31 s
Bit rate mode : Constant
Bit rate : 768 kb/s
Channel(s) : 6 channels
Channel layout : L R C LFE Ls Rs
Sampling rate : 48.0 kHz
Frame rate : 31.250 FPS (1536 SPF)
Compression mode : Lossy
Stream size : 261 MiB (19%)
Language : English
Service kind : Complete Main
Default : No
Forced : No
Complexity index : 16
Number of dynamic objects : 15
Bed channel count : 1 channel
Bed channel configuration : LFE

Text #1
ID : 4
Format : UTF-8
Codec ID : S_TEXT/UTF8
Codec ID/Info : UTF-8 Plain Text
Duration : 41 min 55 s
Bit rate : 1 b/s
Count of elements : 12
Stream size : 477 Bytes (0%)
Title : Forced
Language : Russian
Default : Yes
Forced : No

Text #2
ID : 5
Format : UTF-8
Codec ID : S_TEXT/UTF8
Codec ID/Info : UTF-8 Plain Text
Duration : 45 min 30 s
Bit rate : 93 b/s
Count of elements : 580
Stream size : 31.3 KiB (0%)
Language : Russian
Default : No
Forced : No

Text #3
ID : 6
Format : UTF-8
Codec ID : S_TEXT/UTF8
Codec ID/Info : UTF-8 Plain Text
Duration : 43 min 38 s
Bit rate : 77 b/s
Count of elements : 771
Stream size : 24.9 KiB (0%)
Title : SDH
Language : English
Default : No
Forced : No

Text #4
ID : 7
Format : UTF-8
Codec ID : S_TEXT/UTF8
Codec ID/Info : UTF-8 Plain Text
Duration : 45 min 29 s
Bit rate : 57 b/s
Count of elements : 540
Stream size : 19.3 KiB (0%)
Language : German
Default : No
Forced : No

Text #5
ID : 8
Format : UTF-8
Codec ID : S_TEXT/UTF8
Codec ID/Info : UTF-8 Plain Text
Duration : 45 min 30 s
Bit rate : 56 b/s
Count of elements : 587
Stream size : 18.9 KiB (0%)
Language : Spanish
Default : No
Forced : No

Text #6
ID : 9
Format : UTF-8
Codec ID : S_TEXT/UTF8
Codec ID/Info : UTF-8 Plain Text
Duration : 45 min 29 s
Bit rate : 56 b/s
Count of elements : 551
Stream size : 18.8 KiB (0%)
Language : French
Default : No
Forced : No

Text #7
ID : 10
Format : UTF-8
Codec ID : S_TEXT/UTF8
Codec ID/Info : UTF-8 Plain Text
Duration : 45 min 30 s
Bit rate : 57 b/s
Count of elements : 560
Stream size : 19.2 KiB (0%)
Language : Italian
Default : No
Forced : No

Text #8
ID : 11
Format : UTF-8
Codec ID : S_TEXT/UTF8
Codec ID/Info : UTF-8 Plain Text
Duration : 45 min 30 s
Bit rate : 60 b/s
Count of elements : 589
Stream size : 20.3 KiB (0%)
Title : Brazilian
Language : Portuguese
Default : No
Forced : No
скриншот  скриншот  скриншот  
pb.wtf



Скачать Наследие Юпитера через торрент https://i3.imageban.ru/out/2021/05/07/864bdad38de6083309334ca38907d374.jpg Скачать фильм Наследие Юпитера через торрент бесплантно в хорошем качестве Описание: Первое поколение супергероев получило невероятные способности в 1930-х и с тех пор стало символом надежды и порядка. Спустя ... 9.1 10 10
Торрент: Зарегистрирован [2021-05-07 10:40] · скачан: 307 раз
Статус: √ проверено
Размер: 12.06 GB
Как cкачать? Как скачать Наследие Юпитера через торрент | UTorrent

28-11-2019 20:33  

Отключить всю рекламу на сайте

07-05-2021 11:42 Наследие Юпитера Скачать торрент  

черт, повелся на жанр "фантастика", а тут комикс и эти петушары в гомосяцких нарядах. достали уже штамповать этих супергеев, пора уже отдельный раздел создавать и выкладывать туда все говно про суперкозлов))
зы. сорян если оскорбил кого из любителей этого жанра. я не со злаpb.wtf



07-05-2021 14:00 Наследие Юпитера Скачать торрент  

tamburetko писал(а):

черт, повелся на жанр "фантастика", а тут комикс и эти петушары в гомосяцких нарядах. достали уже штамповать этих супергеев, пора уже отдельный раздел создавать и выкладывать туда все говно про суперкозлов))
зы. сорян если оскорбил кого из любителей этого жанра. я не со зла

Уважаемый, на каналах "Россия", "1ый", "ТВЦ" и т.д. куча несупергеев и несуперкозлов. Никто Вас, мой уважаемый, не заставляет на данном ресурсе ни смотреть ни качать!

Вратаря галактики рекомендую)))pb.wtf



07-05-2021 15:30 Наследие Юпитера Скачать торрент  

Mastabla писал(а):

tamburetko писал(а):

черт, повелся на жанр "фантастика", а тут комикс и эти петушары в гомосяцких нарядах. достали уже штамповать этих супергеев, пора уже отдельный раздел создавать и выкладывать туда все говно про суперкозлов))
зы. сорян если оскорбил кого из любителей этого жанра. я не со зла

Уважаемый, на каналах "Россия", "1ый", "ТВЦ" и т.д. куча несупергеев и несуперкозлов. Никто Вас, мой уважаемый, не заставляет на данном ресурсе ни смотреть ни качать!

Вратаря галактики рекомендую)))

так их этих неотесанныхpb.wtf



08-05-2021 13:18 Наследие Юпитера Скачать торрент  

Mastabla писал(а):

tamburetko писал(а):

черт, повелся на жанр "фантастика", а тут комикс и эти петушары в гомосяцких нарядах. достали уже штамповать этих супергеев, пора уже отдельный раздел создавать и выкладывать туда все говно про суперкозлов))
зы. сорян если оскорбил кого из любителей этого жанра. я не со зла

Уважаемый, на каналах "Россия", "1ый", "ТВЦ" и т.д. куча несупергеев и несуперкозлов. Никто Вас, мой уважаемый, не заставляет на данном ресурсе ни смотреть ни качать!

Вратаря галактики рекомендую)))

то есть нам, отсталым, идти за качественной фантастикой на твц?) типа, любишь хорошее кино - шуруй с торрентов на первый канал?) повеселилpb.wtf



09-05-2021 03:27 Наследие Юпитера Скачать торрент  

tamburetko писал(а):

Mastabla писал(а):

tamburetko писал(а):

черт, повелся на жанр "фантастика", а тут комикс и эти петушары в гомосяцких нарядах. достали уже штамповать этих супергеев, пора уже отдельный раздел создавать и выкладывать туда все говно про суперкозлов))
зы. сорян если оскорбил кого из любителей этого жанра. я не со зла

Уважаемый, на каналах "Россия", "1ый", "ТВЦ" и т.д. куча несупергеев и несуперкозлов. Никто Вас, мой уважаемый, не заставляет на данном ресурсе ни смотреть ни качать!

Вратаря галактики рекомендую)))

то есть нам, отсталым, идти за качественной фантастикой на твц?) типа, любишь хорошее кино - шуруй с торрентов на первый канал?) повеселил

Да не. На телик лучше вообще ни ногой! Лучше тут ищи. Просто не обязательно ведь было оставлять подобный коммент. Прошел бы мимо и все, если тебе оно не нравится. Так ведь обычно люди делают... Для кого-то супергеройка не просто хня, а настоящее искусство. У каждого разные вкусы и предпочтения. К фильмам, играм и тп.pb.wtf



    Дорогой пользователь! Огромная просьба, поблагодарите релизера, оцените раздачу и оставьте свои комментарий, если Вы скачали Наследие Юпитера через торрент бесплатно! Внесите свою лепту в развитие PiratBit!
    Комментировать посты могут только пользователи прошедшие не сложную регистрацию
    Показать сообщения:    

    Наследие Юпитера через торрент
    Скачать бесплатно Наследие Юпитера
    Наследие Юпитера скачать торрент
    Наследие Юпитера смотреть онлайн
    Cкачать фильм Наследие Юпитера бесплатно
    Наследие Юпитера скачать торрент в хорошем качестве
    Наследие Юпитера смотреть онлайн бесплатно в хорошем качестве


    Вы не можете начинать темы
    Вы не можете отвечать на сообщения
    Вы не можете редактировать свои сообщения
    Вы не можете удалять свои сообщения
    Вы не можете голосовать в опросах
    Вы не можете прикреплять файлы к сообщениям
    Вы можете скачивать файлы