Присоединяйтесь к нам в Telegram!, здесь всегда актуальный адрес сайта, оперативная поддержка и многое другое!!

>

5.9

iTunes

7.4

iTunes

9.4

1 сезон

1

7.4

2 сезон

7.2

iTunes

7.3

1 сезон

13

6.1

iTunes

8.3

GOG

30

ULTIMATE

pack

9.9

Лицензия

ВАЖНО

ИГРА 18+

pack

7.3

RePack

MK11

7.7

RePack

jed

7.8

RePack

fifa19

8.5

RePack

RDR2

RePack

NEED FOR SPEED™ PAYBACK

5 сезон

9 сезон

Бесстыжие 9 сезон

Все сериалы

все сериалы на PB.wtf

RePack

FAR CRY 5

Anonymous, доброе утро, мы катастрофически не успеваем собрать деньги на оплату серверов, помогите нам пожалуйста 5,10,15р., для нас важна любая помощь . В качестве благодарности мы отключим Вам всю рекламу на сайте (укажите свой ник в строку Ваше имя)!

×
  
Magnet ссылка

Мортал Комбат / Mortal Kombat (Саймон Маккуойд) [2021, боевик, фэнтези, фантастика, WEB-DLRip-AVC] Dub pb.wtf

Мортал Комбат через торрент pb.wtf

Раздают: 14 [ 0 KB/s ]
Размер: 1.59 GB | Добавлен: 6 мес. назад | Торрент скачан:313 раз
Смотреть онлайн Мортал Комбат | Скачать    Ребята, помогите собрать деньги на оплату серверов!!!

07-05-2021 14:01 Мортал Комбат Скачать торрент  

Мортал Комбат
Mortal Kombat

Страна: США
Жанр: боевик, фэнтези, фантастика
Год выпуска: 2021
Продолжительность: 01:50:02

Перевод: Профессиональный (полное дублирование) [Пифагор]
Субтитры: русские (форсированные, полные)
Оригинальная аудиодорожка: нет

Режиссер: Саймон Маккуойд / Simon McQuoid

В ролях: Льюис Тан, Джо Таслим, Джессика МакНэми, Джош Лоусон, Хироюки Санада, Мехкад Брукс, Луди Линь, Макс Хуан, Таданобу Асано, Чинь Хань

Описание: Боец смешанных единоборств Коул Янг не раз соглашался проиграть за деньги. Он не знает о своем наследии и почему император Внешнего мира Шан Цзун посылает могущественного криомансера Саб-Зиро на охоту за Коулом. Янг боится за безопасность своей семьи, и майор спецназа Джакс, обладатель такой же отметки в виде дракона, как и у Коула, советует ему отправиться на поиски Сони Блейд. Вскоре Коул, Соня и наёмник Кано оказываются в храме Лорда Рейдена, Старшего Бога и защитника Земного царства, который дает убежище тем, кто носит метку. Здесь прибывшие тренируются с опытными воинами Лю Каном и Кун Лао, готовясь противостоять врагам из Внешнего мира, а для этого им нужно раскрыть в себе аркану — могущественную силу души.



Релиз:

Автор рипа: stalkerok

Сэмпл

Качество видео: WEB-DLRip-AVC | Исходник: Mortal.Kombat.2021.1080p.AMZN.WEB-DL.DDP5.1.Atmos.H.264-TEPES
Формат видео: MKV
Видео кодек: AVC
Аудио кодек: AC3
Видео: AVC, 1677 Кбит/сек, 1032x430 (2.40:1), 23,976 кадр/сек
Аудио: AC3, 384 Кбит/сек, 48 КГц, 5.1 - русский
Навигация по главам: есть
---[Information] [07.05.2021 16:33:52] x264 [info]: frame I:1521 Avg QP:16.08 size: 52128
---[Information] [07.05.2021 16:33:52] x264 [info]: frame P:34573 Avg QP:17.60 size: 18643
---[Information] [07.05.2021 16:33:52] x264 [info]: frame B:122179 Avg QP:20.24 size: 5403
---[Information] [07.05.2021 16:33:52] x264 [info]: consecutive B-frames: 2.3% 3.1% 7.1% 23.6% 16.0% 36.8% 5.0% 3.1% 0.9% 1.0% 0.3% 0.3% 0.2% 0.1% 0.4%

General
Unique ID : 75495287647100537899385091579361979256 (0x38CBDD0F405BA5779C60BE1A17A96B78)
Complete name : J:\Mortal.Kombat.2021\Mortal.Kombat.2021.WEB-DLRip.x264.Rus.stalkerok.New-Team.mkv
Format : Matroska
Format version : Version 4
File size : 1.59 GiB
Duration : 1 h 50 min
Overall bit rate : 2 063 kb/s
Movie name : Mortal Kombat (2021) | Release by stalkerok from New-Team
Encoded date : UTC 2021-05-07 13:47:29
Writing application : mkvmerge v56.1.0 ('My Friend') 64-bit
Writing library : libebml v1.4.2 + libmatroska v1.6.4

Video
ID : 1
Format : AVC
Format/Info : Advanced Video Codec
Format profile : High@L4.1
Format settings : CABAC / 12 Ref Frames
Format settings, CABAC : Yes
Format settings, Reference frames : 12 frames
Codec ID : V_MPEG4/ISO/AVC
Duration : 1 h 50 min
Bit rate : 1 677 kb/s
Width : 1 032 pixels
Height : 430 pixels
Display aspect ratio : 2.40:1
Frame rate mode : Constant
Frame rate : 23.976 (24000/1001) FPS
Color space : YUV
Chroma subsampling : 4:2:0
Bit depth : 8 bits
Scan type : Progressive
Bits/(Pixel*Frame) : 0.158
Stream size : 1.29 GiB (81%)
Title : Rip by stalkerok
Writing library : x264 core 161 r3043+53M 5ab00ad t_mod_New [(8 & 10)-bit@all X86_64]
Encoding settings : cabac=1 / ref=12 / deblock=1:-3:-2 / analyse=0x3:0x133 / me=umh / subme=10 / psy=1 / fade_compensate=0.00 / psy_rd=1.00:0.00 / mixed_ref=1 / me_range=32 / chroma_me=1 / trellis=2 / 8x8dct=1 / cqm=0 / deadzone=21,11 / fast_pskip=0 / chroma_qp_offset=-2 / threads=12 / lookahead_threads=3 / sliced_threads=0 / nr=0 / decimate=1 / interlaced=0 / bluray_compat=0 / constrained_intra=0 / fgo=0 / bframes=14 / b_pyramid=2 / b_adapt=2 / b_bias=0 / direct=3 / weightb=1 / open_gop=0 / weightp=2 / keyint=240 / keyint_min=23 / scenecut=40 / intra_refresh=0 / rc_lookahead=60 / rc=crf / mbtree=0 / crf=19.2000 / qcomp=0.65 / qpmin=0:0:0 / qpmax=69:69:69 / qpstep=4 / vbv_maxrate=50000 / vbv_bufsize=62500 / crf_max=0.0 / nal_hrd=none / filler=0 / ip_ratio=1.40 / pb_ratio=1.30 / aq=3:0.90 / aq-sensitivity=10.00 / aq-factor=1.00:1.00:1.00 / aq2=0 / aq3=0
Language : English
Default : Yes
Forced : No

Audio
ID : 2
Format : AC-3
Format/Info : Audio Coding 3
Commercial name : Dolby Digital
Codec ID : A_AC3
Duration : 1 h 50 min
Bit rate mode : Constant
Bit rate : 384 kb/s
Channel(s) : 6 channels
Channel layout : L R C LFE Ls Rs
Sampling rate : 48.0 kHz
Frame rate : 31.250 FPS (1536 SPF)
Compression mode : Lossy
Stream size : 302 MiB (19%)
Language : Russian
Service kind : Complete Main
Default : Yes
Forced : No

Text #1
ID : 3
Format : UTF-8
Codec ID : S_TEXT/UTF8
Codec ID/Info : UTF-8 Plain Text
Duration : 1 h 37 min
Bit rate : 3 b/s
Count of elements : 56
Stream size : 2.48 KiB (0%)
Title : Forced
Language : Russian
Default : Yes
Forced : No

Text #2
ID : 4
Format : UTF-8
Codec ID : S_TEXT/UTF8
Codec ID/Info : UTF-8 Plain Text
Duration : 1 h 37 min
Bit rate : 63 b/s
Count of elements : 970
Stream size : 45.5 KiB (0%)
Language : Russian
Default : No
Forced : No

Menu
00:00:00.000 : Studio Logo
00:00:45.000 : Scene 2
00:04:48.000 : Scene 3
00:07:25.000 : Scene 4
00:10:11.000 : Scene 5
00:12:38.000 : Title Sequence
00:12:54.000 : Prologue
00:13:10.000 : Scene 8
00:15:54.000 : Scene 9
00:16:57.000 : Scene 10
00:19:13.000 : Scene 11
00:23:08.000 : Scene 12
00:25:22.000 : Scene 13
00:26:22.000 : Scene 14
00:27:24.000 : Scene 15
00:32:05.000 : Scene 16
00:34:39.000 : Scene 17
00:37:38.000 : Scene 18
00:38:55.000 : Scene 19
00:43:10.000 : Scene 20
00:46:10.000 : Scene 21
00:47:45.000 : Scene 22
00:51:11.000 : Scene 23
00:55:02.000 : Scene 24
00:57:51.000 : Scene 25
01:01:13.000 : Scene 26
01:03:19.000 : Scene 27
01:04:00.000 : Scene 28
01:05:48.000 : Scene 29
01:07:17.000 : Scene 30
01:13:05.000 : Scene 31
01:16:36.000 : Scene 32
01:19:23.000 : Scene 33
01:21:23.000 : Scene 34
01:25:21.000 : Scene 35
01:27:17.000 : Scene 36
01:28:10.000 : Scene 37
01:31:56.000 : Scene 38
01:35:35.000 : Scene 39
01:38:14.000 : Scene 40
01:38:59.000 : End Credits
pb.wtf



Скачать Мортал Комбат через торрент http://i6.imageban.ru/out/2017/09/18/2ff75c0c358795c5946784cc1680714d.png Скачать, смотреть онлайн Мортал Комбат бесплантно в хорошем качестве Описание: Боец смешанных единоборств Коул Янг не раз соглашался проиграть за деньги. Он не знает о своем наследии и почему император ... 10 10 11
Info! Золотая раздача, скачанное не засчитывается.
Торрент: Зарегистрирован [2021-05-07 14:01] · скачан: 313 раз
Статус: √ проверено
Размер: 1.59 GB
Как cкачать? Как скачать Мортал Комбат через торрент | UTorrent

% Раздел Тема Автор DL S | L
Зарубежные Мультфильмы (BDRip 1080p, 720p, Blu-ray, BD-Remux) [ 6.19 GB ] Легенды Мортал комбат: Битва миров / Легенды «Смертельной битвы»: Битва королевств / Mortal Kombat Legends: Battle of the Realms [2021 Мультфильм BDRip 1080p] DUB [Кинопоиск HD] bober100 Скачать
8 | 0
Ultra HD (UHD: 2K, 4K, 8K) [ 30.71 GB ] Легенды Мортал комбат: Битва миров / Легенды «Смертельной битвы»: Битва королевств / Mortal Kombat Legends: Battle of the Realms [2021 Мультфильм UHD BDRemux 2160p] DUB [Кинопоиск HD] bober100 Скачать
2 | 0
Фильмы [HD 720p, 1080p] (Хороший звук DUB, MVO) [ 8.6 GB ] Мортал Комбат / Mortal Kombat [2021 BDRip 1080p] DUB [Пифагор] bober100 Скачать
7 | 0
Ultra HD (UHD: 2K, 4K, 8K) — видео сверхвысокой чёткости [ 51.53 GB ] Мортал Комбат / Mortal Kombat [2021 UHD BDRemux 2160p] DUB [Пифагор] +MVO [HDRezka Studio] +3xAVO bober100 Скачать
2 | 0
Фильмы [HD 720p, 1080p] (Хороший звук DUB, MVO) [ 5.22 GB ] Мортал Комбат / Mortal Kombat [2021 BDRip 720p] DUB [Пифагор] bober100 Скачать
2 | 0
Фильмы (HD 720p, 1080p) (48-60 fps) [ 3.59 GB ] Мортал Комбат / Mortal Kombat [2021 WEB-DLRip - HEVC 1080p 10 bit 60 FPS DUB AVO ] dd2d3 Скачать
5 | 0
Фильмы (WEB-DL 720p, 1080p) [ 7.73 GB ] Мортал Комбат / Mortal Kombat [2021 WEB-DL 1080p] Dub sokol_ok Скачать
13 | 0

28-11-2019 20:33  

Отключить всю рекламу на сайте

    Дорогой пользователь! Огромная просьба, поблагодарите релизера, оцените раздачу и оставьте свои комментарий, если Вы скачали Мортал Комбат через торрент бесплатно!
    Комментировать посты могут только пользователи прошедшие не сложную регистрацию
    Показать сообщения:    

    Мортал Комбат через торрент
    Скачать бесплатно Мортал Комбат
    Мортал Комбат скачать торрент
    Мортал Комбат смотреть онлайн
    Cкачать фильм Мортал Комбат бесплатно
    Мортал Комбат скачать торрент в хорошем качестве
    Мортал Комбат смотреть онлайн бесплатно в хорошем качестве


    Вы не можете начинать темы
    Вы не можете отвечать на сообщения
    Вы не можете редактировать свои сообщения
    Вы не можете удалять свои сообщения
    Вы не можете голосовать в опросах
    Вы не можете прикреплять файлы к сообщениям
    Вы можете скачивать файлы