1 сезон

3 сезон

iTunes

1

iTunes

DUB Netflix

iTunes

13

1 сезон

RePack

30

Deluxe

pack

Легкие деньги

ВАЖНО

ИГРА 18+

pack

RePack

MK11

RePack

jed

RePack

fifa19

RePack

RDR2

RePack

NEED FOR SPEED™ PAYBACK

4 сезон

9 сезон

Бесстыжие 9 сезон

Все сериалы

все сериалы на PB.wtf

RePack

FAR CRY 5

Anonymous, добрый день, мы не успеваем до 1 числа собрать деньги на оплату серверов, помогите нам пожалуйста в это трудное время. В качестве благодарности мы отключим Вам всю рекламу на сайте (укажите свой ник в строку Ваше имя)!

×
  
Magnet ссылка

Райя и последний дракон / Raya and the Last Dragon (Дон Холл, Карлос Лопес Эстрада, Пол Бриггс) [2021, Мультфильм, фэнтези, боевик, комедия, приключения, семейный, BDRip 720p] DUB [iTunes] pb.wtf

Райя и последний дракон через торрент pb.wtf

Раздают: 24 [ 992 KB/s ]
Размер: 5.35 GB | Добавлен: 1 мес. 11 д. назад | Торрент скачан:295 раз
Скачать  

08-05-2021 05:59 Райя и последний дракон Скачать торрент  

Райя и последний дракон | Raya and the Last Dragon
Год выпуска: 2021
Страна: США
Выпущено: Walt Disney Animation Studios, Walt Disney Pictures
Жанр: Мультфильм, фэнтези, боевик, комедия, приключения, семейный
Продолжительность: 01:47:29
Перевод: Дублированный | iTunes
Субтитры: Русские (Forced, full), английские

Режиссер: Дон Холл, Карлос Лопес Эстрада, Пол Бриггс

rating

В ролях: Келли Мари Трэн, Аквафина, Айзек Ванг, Джемма Чан, Дэниэл Дэ Ким, Бенедикт Вонг, Джона Сяо, Сандра О, Талия Чан, Люсиль Сун

Описание: Давным-давно в волшебной стране Кумандре бок о бок с людьми жили драконы — создатели и хранители воды. Мирной жизни пришел конец, когда появились друуны. Порождения тьмы обращали людей и драконов в каменные изваяния, и только магия драконихи Сису смогла прогнать злых созданий и расколдовать людей, но на драконов не подействовала. Кумандра раскололась на государства Сердца, Клыка, Когтя, Хребта и Хвоста, а волшебный драконий камень хранился в стране Сердца, которой правил отец Райи. Он мечтал объединить земли, но из-за человеческой жадности и зависти артефакт раскололся. Правитель каждой страны заполучил по осколку, а друуны снова стали властвовать безраздельно.

Несколько лет спустя Райя и её верный спутник Тук-Тук бесстрашно колесят по выжженной пустыне, исследуя оставшиеся реки и не теряя надежды найти последнего дракона — последнюю надежду людей одержать победу над друунами.

Качество: BDRip 720p
Формат: MKV

Видео: MPEG-4 AVC, 1280x536, 6095 Kbit/s, 23.976 fps
Аудио #01: 48 kHz, AC3, 5.1, 384 Kbps | iTunes | RUS |
Аудио #02: 48 kHz, AC3, 5.1, 640 Kbps | Оригинал | ENG |
скриншот  скриншот  скриншот  скриншот  скриншот  

General
Unique ID : 118365520178760858420598092605225023327 (0x590C5EB652A12A286DDFF03C4989B75F)
Complete name : F:VideoRaya.and.the.Last.Dragon.2021.BDRip.720p.seleZen.mkv
Format : Matroska
Format version : Version 4
File size : 5.35 GiB
Duration : 1 h 47 min
Overall bit rate : 7 122 kb/s
Movie name : Raya and the Last Dragon 2021 from seleZen
Encoded date : UTC 2021-05-07 19:25:08
Writing application : mkvmerge v55.0.0 ('Waiting For Space') 64-bit
Writing library : libebml v1.4.2 + libmatroska v1.6.4

Video
ID : 1
Format : AVC
Format/Info : Advanced Video Codec
Format profile : High@L4.1
Format settings : CABAC / 12 Ref Frames
Format settings, CABAC : Yes
Format settings, Reference : 12 frames
Codec ID : V_MPEG4/ISO/AVC
Duration : 1 h 47 min
Bit rate : 6 095 kb/s
Width : 1 280 pixels
Height : 536 pixels
Display aspect ratio : 2.40:1
Frame rate mode : Constant
Frame rate : 23.976 (24000/1001) FPS
Color space : YUV
Chroma subsampling : 4:2:0
Bit depth : 8 bits
Scan type : Progressive
Bits/(Pixel*Frame) : 0.371
Stream size : 4.58 GiB (86%)
Title : MTeam
Writing library : x264 core 157 r2938 2b00a84 TnP@MTeam Mod
Encoding settings : cabac=1 / ref=12 / deblock=1:-3:-3 / analyse=0x3:0x133 / me=umh / subme=10 / psy=1 / psy_rd=1.05:0.00 / mixed_ref=1 / me_range=32 / chroma_me=1 / trellis=2 / 8x8dct=1 / cqm=0 / deadzone=21,11 / fast_pskip=0 / chroma_qp_offset=-2 / threads=12 / lookahead_threads=2 / sliced_threads=0 / nr=0 / decimate=0 / interlaced=0 / bluray_compat=0 / constrained_intra=0 / bframes=8 / b_pyramid=2 / b_adapt=2 / b_bias=0 / direct=3 / weightb=1 / open_gop=0 / weightp=2 / keyint=250 / keyint_min=24 / scenecut=40 / intra_refresh=0 / rc_lookahead=250 / rc=crf / mbtree=0 / crf=16.8 / qcomp=0.60 / qpmin=0 / qpmax=69 / qpstep=4 / vbv_maxrate=62500 / vbv_bufsize=78125 / crf_max=0.0 / nal_hrd=none / filler=0 / ip_ratio=1.30 / pb_ratio=1.20 / aq=3:0.80
Language : English
Default : Yes
Forced : No
Color range : Limited
Color primaries : BT.709
Matrix coefficients : BT.709

Audio #1
ID : 2
Format : AC-3
Format/Info : Audio Coding 3
Commercial name : Dolby Digital
Codec ID : A_AC3
Duration : 1 h 47 min
Bit rate mode : Constant
Bit rate : 384 kb/s
Channel(s) : 6 channels
Channel layout : L R C LFE Ls Rs
Sampling rate : 48.0 kHz
Frame rate : 31.250 FPS (1536 SPF)
Compression mode : Lossy
Stream size : 295 MiB (5%)
Title : iTunes
Language : Russian
Service kind : Complete Main
Default : Yes
Forced : Yes

Audio #2
ID : 3
Format : AC-3
Format/Info : Audio Coding 3
Commercial name : Dolby Digital
Codec ID : A_AC3
Duration : 1 h 47 min
Bit rate mode : Constant
Bit rate : 640 kb/s
Channel(s) : 6 channels
Channel layout : L R C LFE Ls Rs
Sampling rate : 48.0 kHz
Frame rate : 31.250 FPS (1536 SPF)
Compression mode : Lossy
Stream size : 492 MiB (9%)
Title : Original
Language : English
Service kind : Complete Main
Default : No
Forced : No

Text #1
ID : 4
Format : UTF-8
Codec ID : S_TEXT/UTF8
Codec ID/Info : UTF-8 Plain Text
Duration : 51 min 55 s
Bit rate : 1 b/s
Count of elements : 13
Stream size : 530 Bytes (0%)
Title : Forced
Language : Russian
Default : Yes
Forced : Yes

Text #2
ID : 5
Format : UTF-8
Codec ID : S_TEXT/UTF8
Codec ID/Info : UTF-8 Plain Text
Duration : 1 h 45 min
Bit rate : 69 b/s
Count of elements : 1149
Stream size : 53.9 KiB (0%)
Title : Full
Language : Russian
Default : No
Forced : No

Text #3
ID : 6
Format : UTF-8
Codec ID : S_TEXT/UTF8
Codec ID/Info : UTF-8 Plain Text
Duration : 1 h 37 min
Bit rate : 68 b/s
Count of elements : 1919
Stream size : 48.8 KiB (0%)
Title : SDH
Language : English
Default : No
Forced : No

Menu
00:00:00.000 : en:Chapter 01
00:08:08.697 : en:Chapter 02
00:11:00.159 : en:Chapter 03
00:15:16.415 : en:Chapter 04
00:20:15.339 : en:Chapter 05
00:28:28.749 : en:Chapter 06
00:35:56.905 : en:Chapter 07
00:37:43.261 : en:Chapter 08
00:41:12.595 : en:Chapter 09
00:43:19.388 : en:Chapter 10
00:48:56.392 : en:Chapter 11
00:51:31.505 : en:Chapter 12
00:53:13.732 : en:Chapter 13
00:55:21.068 : en:Chapter 14
00:59:08.044 : en:Chapter 15
01:01:57.380 : en:Chapter 16
01:04:34.579 : en:Chapter 17
01:06:47.295 : en:Chapter 18
01:11:21.819 : en:Chapter 19
01:15:51.213 : en:Chapter 20
01:18:41.008 : en:Chapter 21
01:28:26.217 : en:Chapter 22
01:35:08.286 : en:Chapter 23

pb.wtf



Скачать Райя и последний дракон через торрент https://i114.fastpic.ru/big/2021/0507/b8/6b817359c15692a6169af216f9cda5b8.jpg Скачать фильм Райя и последний дракон через торрент бесплантно в хорошем качестве Описание: Давным-давно в волшебной стране Кумандре бок о бок с людьми жили драконы — создатели и хранители воды. Мирной жизни пришел конец, ... 10 10 10
Info! Золотая раздача, скачанное не засчитывается.
Торрент: Зарегистрирован [2021-05-08 05:59] · скачан: 295 раз
Статус: √ проверено
Размер: 5.35 GB
Как cкачать? Как скачать Райя и последний дракон через торрент | UTorrent

% Раздел Тема Автор DL S | L
Ultra HD (UHD: 2K, 4K, 8K) [ 46.18 GB ] Райя и последний дракон / Raya and the Last Dragon [2021 Мультфильм UHD BDRemux 2160p] +MVO [HDRezka Studio] bober100 Скачать
3 | 1
Зарубежные Мультфильмы (BDRip 1080p, 720p, Blu-ray, BD-Remux) [ 22.2 GB ] Райя и последний дракон / Raya and the Last Dragon [2021 Мультфильм BD Remux 1080p] bober100 Скачать
5 | 0
Иностранные мультфильмы [ 746 MB ] Райя и последний дракон / Raya and the Last Dragon [2021 Мультфильм BDRip] bober100 Скачать
2 | 0
Иностранные мультфильмы [ 1.41 GB ] Райя и последний дракон / Raya and the Last Dragon [2021 Мультфильм BDRip] - Twi7ter Скачать
134 | 4
Ultra HD (UHD: 2K, 4K, 8K) [ 13.19 GB ] Райя и последний дракон / Raya and the Last Dragon [2021 Мультфильм UHD WEB-DL 2160p] +MVO [HDRezka Studio] bober100 Скачать
6 | 0
Иностранные мультфильмы [ 1.41 GB ] Райя и последний дракон / Raya and the Last Dragon [2021 Мультфильм BDRip] bober100 Скачать
8 | 0
Мультфильмы (48-60 fps) [ 3.49 GB ] Райя и последний дракон / Raya and the Last Dragon [2021 Мультфильм WEB-DLRip 720p / 60 FPS ] от R.G. HD-Films slaventi-69 Скачать
22 | 0

28-11-2019 20:33  

Отключить всю рекламу на сайте


    Дорогой пользователь! Огромная просьба, поблагодарите релизера, оцените раздачу и оставьте свои комментарий, если Вы скачали Райя и последний дракон через торрент бесплатно! Внесите свою лепту в развитие PiratBit!
    Комментировать посты могут только пользователи прошедшие не сложную регистрацию
    Показать сообщения:    

    Райя и последний дракон через торрент
    Скачать бесплатно Райя и последний дракон
    Райя и последний дракон скачать торрент
    Райя и последний дракон смотреть онлайн
    Cкачать фильм Райя и последний дракон бесплатно
    Райя и последний дракон скачать торрент в хорошем качестве
    Райя и последний дракон смотреть онлайн бесплатно в хорошем качестве


    Вы не можете начинать темы
    Вы не можете отвечать на сообщения
    Вы не можете редактировать свои сообщения
    Вы не можете удалять свои сообщения
    Вы не можете голосовать в опросах
    Вы не можете прикреплять файлы к сообщениям
    Вы можете скачивать файлы