Присоединяйтесь к нам в Telegram!, здесь всегда актуальный адрес сайта, оперативная поддержка и многое другое!!

>

5.9

iTunes

7.4

iTunes

9.4

1 сезон

1

7.4

2 сезон

7.2

iTunes

7.3

1 сезон

13

6.1

iTunes

8.3

Пиратка

30

ULTIMATE

pack

9.9

Лицензия

ВАЖНО

ИГРА 18+

pack

7.3

RePack

MK11

7.7

RePack

jed

7.8

RePack

fifa19

8.5

RePack

RDR2

RePack

NEED FOR SPEED™ PAYBACK

5 сезон

9 сезон

Бесстыжие 9 сезон

Все сериалы

все сериалы на PB.wtf

RePack

FAR CRY 5

Anonymous, доброй ночи, мы катастрофически не успеваем собрать деньги на оплату серверов, помогите нам пожалуйста 5,10,15р., для нас важна любая помощь . В качестве благодарности мы отключим Вам всю рекламу на сайте (укажите свой ник в строку Ваше имя)!

×
  
Magnet ссылка

Гениальное ограбление / Way Down (Жауме Балагеро) [2021, Боевик, приключения, триллер, HDRip-AVC] [DUB] [GER Transfer | iTunes] от MediaBit pb.wtf

Гениальное ограбление через торрент pb.wtf

Раздают: 2 [ 39 KB/s ]
Размер: 2.05 GB | Добавлен: 5 мес. 16 д. назад | Торрент скачан:352 раза
Смотреть онлайн Гениальное ограбление | Скачать    Ребята, помогите собрать деньги на оплату серверов!!!

08-05-2021 09:57 Гениальное ограбление Скачать торрент  


Гениальное ограбление / Way Down / The Vault
Информация о фильме:
Название: Гениальное ограбление
Оригинальное название: Way Down / The Vault
Год выхода: 2021
Жанр: Боевик, триллер, приключения
Режиссер: Жауме Балагеро

В ролях: Фамке Янссен, Фредди Хаймор, Астрид Берже-Фрисби, Лиам Каннингэм, Сэм Райли, Луис Тосар, Хосе Коронадо, Эмилио Гутьеррес Каба, Аксель Штайн, Франк Фейс

Описание: Том — выдающийся инженер-выпускник, одержимый Банком Испании, а точнее, его хранилищем, построенным 100 лет назад и не имеющим чертежей. Его система безопасности включает подземную реку, которая в экстренной ситуации заполняет охраняемое помещение. Узнав о том, что именно туда на 10 дней привезут легендарное сокровище, Том разрабатывает филигранный план проникновения в банк вместе с артдилером Уолтером. У них есть всего 90 минут — именно столько будет длиться финал Кубка мира по футболу, который отвлечет банковских работников.



Страна: Испания
Студия: Ciudadano Ciskul, El Tesoro de Drake AIE, ESCine Español, Marrowbone, Mediaset España, Mediterraneo Media Entertainment, Movistar+, Telecinco Cinema, TF1 Studio, Think Studio
Продолжительность: 01:58:16
Перевод: Дублированный - iTunes



Информация о файле:
Кодек: AVC
Формат: MKV
Качество: HDRip-AVC
Видео: MPEG-4 AVC, 1024x428, 24.000 fps, 1648 kbps
Аудио RU: AC3, 6 ch, 48 kHz, 384 kbps
Аудио EN: AC3, 6 ch, 48 kHz, 448 kbps
Субтитры: Английские
Навигация по главам: Да

x264 info: frame I:1727 Avg QP:14.33 size: 64693
x264 info: frame P:40533 Avg QP:18.42 size: 17960
x264 info: frame B:128042 Avg QP:21.68 size: 4835
General
Unique ID : 253006993764728066873921400519963904733 (0xBE575FE20E4BD0DC163FF8C1D1930ADD)
Complete name : D:uTorrentРипы wolf1245Ograblenije.genealnoje.2021.DUB.HDRip-AVC.[wolf1245.MediaBit].mkv
Format : Matroska
Format version : Version 4
File size : 2.05 GiB
Duration : 1 h 58 min
Overall bit rate : 2 478 kb/s
Movie name : Ograblenije.genealnoje.2021.DUB.HDRip-AVC.[wolf1245.MediaBit]
Encoded date : UTC 2021-06-19 20:10:06
Writing application : mkvmerge v58.0.0 ('Supper's Ready') 64-bit
Writing library : libebml v1.4.2 + libmatroska v1.6.4
Video
ID : 1
Format : AVC
Format/Info : Advanced Video Codec
Format profile : High@L4.1
Format settings : CABAC / 14 Ref Frames
Format settings, CABAC : Yes
Format settings, Reference frames : 14 frames
Codec ID : V_MPEG4/ISO/AVC
Duration : 1 h 58 min
Bit rate : 1 648 kb/s
Width : 1 024 pixels
Height : 428 pixels
Display aspect ratio : 2.40:1
Frame rate mode : Constant
Frame rate : 24.000 FPS
Color space : YUV
Chroma subsampling : 4:2:0
Bit depth : 8 bits
Scan type : Progressive
Bits/(Pixel*Frame) : 0.157
Stream size : 1.36 GiB (66%)
Title : .[wolf1245.MediaBit]
Writing library : x264 core 157 r2958 57baac4
Encoding settings : cabac=1 / ref=14 / deblock=1:-3:-3 / analyse=0x3:0x133 / me=umh / subme=11 / psy=1 / psy_rd=1.00:0.05 / mixed_ref=1 / me_range=48 / chroma_me=1 / trellis=2 / 8x8dct=1 / cqm=0 / deadzone=21,11 / fast_pskip=1 / chroma_qp_offset=-3 / threads=10 / lookahead_threads=2 / sliced_threads=0 / nr=0 / decimate=1 / interlaced=0 / bluray_compat=0 / constrained_intra=0 / bframes=12 / b_pyramid=2 / b_adapt=2 / b_bias=0 / direct=3 / weightb=1 / open_gop=0 / weightp=2 / keyint=240 / keyint_min=24 / scenecut=40 / intra_refresh=0 / rc_lookahead=60 / rc=2pass / mbtree=1 / bitrate=1648 / ratetol=1.0 / qcomp=0.60 / qpmin=0 / qpmax=69 / qpstep=4 / cplxblur=20.0 / qblur=0.5 / vbv_maxrate=50000 / vbv_bufsize=62500 / nal_hrd=none / filler=0 / ip_ratio=1.40 / aq=3:0.80
Language : English
Default : Yes
Forced : No
Color range : Limited
Color primaries : BT.709
Transfer characteristics : BT.709
Matrix coefficients : BT.709
Audio #1
ID : 2
Format : AC-3
Format/Info : Audio Coding 3
Commercial name : Dolby Digital
Codec ID : A_AC3
Duration : 1 h 57 min
Bit rate mode : Constant
Bit rate : 384 kb/s
Channel(s) : 6 channels
Channel layout : L R C LFE Ls Rs
Sampling rate : 48.0 kHz
Frame rate : 31.250 FPS (1536 SPF)
Bit depth : 16 bits
Compression mode : Lossy
Stream size : 324 MiB (15%)
Title : DUB | (iTunes)
Language : Russian
Service kind : Complete Main
Default : Yes
Forced : No
Audio #2
ID : 3
Format : AC-3
Format/Info : Audio Coding 3
Commercial name : Dolby Digital
Codec ID : A_AC3
Duration : 1 h 58 min
Bit rate mode : Constant
Bit rate : 448 kb/s
Channel(s) : 6 channels
Channel layout : L R C LFE Ls Rs
Sampling rate : 48.0 kHz
Frame rate : 31.250 FPS (1536 SPF)
Bit depth : 16 bits
Compression mode : Lossy
Stream size : 379 MiB (18%)
Title : Original
Language : English
Service kind : Complete Main
Default : No
Forced : No
Text #1
ID : 4
Format : UTF-8
Codec ID : S_TEXT/UTF8
Codec ID/Info : UTF-8 Plain Text
Duration : 1 h 48 min
Bit rate : 50 b/s
Count of elements : 1143
Stream size : 40.3 KiB (0%)
Language : English
Default : No
Forced : No
Text #2
ID : 5
Format : UTF-8
Codec ID : S_TEXT/UTF8
Codec ID/Info : UTF-8 Plain Text
Duration : 1 h 50 min
Bit rate : 48 b/s
Count of elements : 1333
Stream size : 38.9 KiB (0%)
Title : SDH
Language : English
Default : No
Forced : No
Menu
00:00:00.000 : :Chapter 1
00:06:25.833 : :Chapter 2
00:10:45.708 : :Chapter 3
00:20:11.666 : :Chapter 4
00:32:20.750 : :Chapter 5
00:48:36.416 : :Chapter 6
00:58:25.000 : :Chapter 7
01:11:59.291 : :Chapter 8
01:23:51.583 : :Chapter 9
01:36:43.083 : :Chapter 10
01:43:25.416 : :Chapter 11
01:51:20.458 : :Chapter 12
01:58:15.958 : :Chapter 13
Релиз от: &
Автор релиза:
pb.wtf



Скачать Гениальное ограбление через торрент https://i4.imageban.ru/out/2021/06/19/06ba8c6cffa1d9455ed785008a5b1cd5.png Скачать, смотреть онлайн Гениальное ограбление бесплантно в хорошем качестве Описание: Том — выдающийся инженер-выпускник, одержимый Банком Испании, а точнее, его хранилищем, построенным 100 лет назад и не имеющим ... 9.1 10 14
Торрент: Зарегистрирован [2021-06-19 20:25] · скачан: 352 раз
Статус: √ проверено
Размер: 2.05 GB
Как cкачать? Как скачать Гениальное ограбление через торрент | UTorrent

28-11-2019 20:33  

Отключить всю рекламу на сайте

20-06-2021 23:24 Гениальное ограбление Скачать торрент  

Топик был перенесен из форума Фильмы 2021 (Звук TS, Cam, VO, DVO) в форум Фильмы 2021 [DVDrip, WEB-DLRip, HDrip] (DUB, MVO)


Enigma2010pb.wtf



    Дорогой пользователь! Огромная просьба, поблагодарите релизера, оцените раздачу и оставьте свои комментарий, если Вы скачали Гениальное ограбление через торрент бесплатно!
    Комментировать посты могут только пользователи прошедшие не сложную регистрацию
    Показать сообщения:    

    Гениальное ограбление через торрент
    Скачать бесплатно Гениальное ограбление
    Гениальное ограбление скачать торрент
    Гениальное ограбление смотреть онлайн
    Cкачать фильм Гениальное ограбление бесплатно
    Гениальное ограбление скачать торрент в хорошем качестве
    Гениальное ограбление смотреть онлайн бесплатно в хорошем качестве


    Вы не можете начинать темы
    Вы не можете отвечать на сообщения
    Вы не можете редактировать свои сообщения
    Вы не можете удалять свои сообщения
    Вы не можете голосовать в опросах
    Вы не можете прикреплять файлы к сообщениям
    Вы можете скачивать файлы