Присоединяйтесь к нам в Telegram!, здесь всегда актуальный адрес сайта, оперативная поддержка и многое другое!!

>

5.9

iTunes

7.4

iTunes

9.4

1 сезон

1

7.4

2 сезон

7.2

iTunes

7.3

1 сезон

13

6.1

iTunes

8.3

GOG

30

ULTIMATE

pack

9.9

Лицензия

ВАЖНО

ИГРА 18+

pack

7.3

RePack

MK11

7.7

RePack

jed

7.8

RePack

fifa19

8.5

RePack

RDR2

RePack

NEED FOR SPEED™ PAYBACK

5 сезон

9 сезон

Бесстыжие 9 сезон

Все сериалы

все сериалы на PB.wtf

RePack

FAR CRY 5

Anonymous, добрый день, мы катастрофически не успеваем собрать деньги на оплату серверов, помогите нам пожалуйста 5,10,15р., для нас важна любая помощь . В качестве благодарности мы отключим Вам всю рекламу на сайте (укажите свой ник в строку Ваше имя)!

×
  
Magnet ссылка

Ученик экзорциста / The Seventh Day (Джастин П. Ланж) [2021, Ужасы, BDRip-AVC] DUB [iTunes] pb.wtf

Ученик экзорциста через торрент pb.wtf

Раздают: 1 [ 0 KB/s ]
Размер: 1.36 GB | Добавлен: 6 мес. назад | Торрент скачан:60 раз
Смотреть онлайн Ученик экзорциста | Скачать    Ребята, помогите собрать деньги на оплату серверов!!!

08-05-2021 11:46 Ученик экзорциста Скачать торрент  

Ученик экзорциста | The Seventh Day
Год выпуска: 2021
Страна: США
Студия: Russell FX
Жанр: Ужасы
Продолжительность: 01:27:38
Перевод: Дублированный | iTunes
Субтитры: отсутствуют

Режиссер: Джастин П. Ланж

rating

В ролях: Гай Пирс, Вадир Дербес, Стивен Лэнг, Брэйди Дженнесс, Робин Бартлетт, Кит Дэвид, Крис Галуст, Акорье Уайт, Тристан Риггс, Хит Фриман

Описание: Молодой священник в первый же день практики в школе экзорцистов сталкивается с очень сложным случаем одержимости. Под руководством бывалого экзорциста- наставника ему придется погрузиться в ад на земле, столкнуться с собственными демонами и разобраться, почему одержимость распространяется как эпидемия, хотя школа готовит всё больше новых экзорцистов.

Качество: BDRip-AVC
Формат: MKV

Видео: 1024x426 (2.40:1), 23,976 fps, x264 ~1 834 kbps avg, 0.175 bit/pixel
Аудио: 48 kHz, AC3 Dolby Digital, 3/2 (L,C,R,l,r) + LFE ch, ~384.00 kbps avg | RUS (iTunes)
скриншот  скриншот  скриншот  скриншот  скриншот  

General
Unique ID : 194000945666399167453801536353788590224 (0x91F33919CB46B3FCC10315B457757890)
Complete name : D:OlLanDGroupThe.Seventh.Day.BDRip(AVC).OllanDGroup.mkv
Format : Matroska
Format version : Version 4
File size : 1.36 GiB
Duration : 1 h 27 min
Overall bit rate : 2 217 kb/s
Movie name : The Seventh Day #TorpedoUK#
Encoded date : UTC 2021-05-07 08:24:00
Writing application : mkvmerge v56.0.0 ('Strasbourg / St. Denis') 64-bit
Writing library : libebml v1.4.2 + libmatroska v1.6.4

Video
ID : 1
Format : AVC
Format/Info : Advanced Video Codec
Format profile : High@L4.1
Format settings : CABAC / 10 Ref Frames
Format settings, CABAC : Yes
Format settings, Reference frames : 10 frames
Codec ID : V_MPEG4/ISO/AVC
Duration : 1 h 27 min
Bit rate : 1 834 kb/s
Width : 1 024 pixels
Height : 426 pixels
Display aspect ratio : 2.40:1
Frame rate mode : Constant
Frame rate : 23.976 (24000/1001) FPS
Color space : YUV
Chroma subsampling : 4:2:0
Bit depth : 8 bits
Scan type : Progressive
Bits/(Pixel*Frame) : 0.175
Stream size : 1.12 GiB (83%)
Title : TorpedoUK
Writing library : x264 core 146 r2538 121396c
Encoding settings : cabac=1 / ref=10 / deblock=1:-3:-3 / analyse=0x3:0x113 / me=umh / subme=11 / psy=1 / psy_rd=0.98:0.04 / mixed_ref=1 / me_range=48 / chroma_me=1 / trellis=2 / 8x8dct=1 / cqm=0 / deadzone=21,11 / fast_pskip=1 / chroma_qp_offset=-6 / threads=6 / lookahead_threads=1 / sliced_threads=0 / nr=0 / decimate=1 / interlaced=0 / bluray_compat=0 / constrained_intra=0 / bframes=11 / b_pyramid=2 / b_adapt=2 / b_bias=0 / direct=3 / weightb=1 / open_gop=0 / weightp=2 / keyint=240 / keyint_min=23 / scenecut=40 / intra_refresh=0 / rc_lookahead=40 / rc=2pass / mbtree=0 / bitrate=1834 / ratetol=1.0 / qcomp=0.60 / qpmin=0 / qpmax=69 / qpstep=4 / cplxblur=20.0 / qblur=0.5 / vbv_maxrate=50000 / vbv_bufsize=62500 / nal_hrd=none / filler=0 / ip_ratio=1.40 / pb_ratio=1.30 / aq=1:1.00
Language : English
Default : Yes
Forced : No

Audio
ID : 2
Format : AC-3
Format/Info : Audio Coding 3
Commercial name : Dolby Digital
Codec ID : A_AC3
Duration : 1 h 27 min
Bit rate mode : Constant
Bit rate : 384 kb/s
Channel(s) : 6 channels
Channel layout : L R C LFE Ls Rs
Sampling rate : 48.0 kHz
Frame rate : 31.250 FPS (1536 SPF)
Compression mode : Lossy
Stream size : 241 MiB (17%)
Title : DUB [iTunes]
Language : Russian
Service kind : Complete Main
Default : Yes
Forced : No

Menu
00:00:00.000 : Chapter 01
00:08:34.931 : Chapter 02
00:16:33.659 : Chapter 03
00:25:15.180 : Chapter 04
00:32:52.637 : Chapter 05
00:39:37.166 : Chapter 06
00:46:05.012 : Chapter 07
00:50:44.791 : Chapter 08
00:57:03.837 : Chapter 09
01:03:51.619 : Chapter 10
01:10:59.421 : Chapter 11
01:17:50.499 : Chapter 12
01:23:24.165 : Chapter 13

pb.wtf



Скачать Ученик экзорциста через торрент https://i114.fastpic.ru/big/2021/0507/26/5fef01dc88e83727619851e72323db26.jpg Скачать, смотреть онлайн Ученик экзорциста бесплантно в хорошем качестве Описание: Молодой священник в первый же день практики в школе экзорцистов сталкивается с очень сложным случаем одержимости. Под ... 10 10 5
Торрент: Зарегистрирован [2021-05-08 11:46] · скачан: 60 раз
Статус: √ проверено
Размер: 1.36 GB
Как cкачать? Как скачать Ученик экзорциста через торрент | UTorrent

% Раздел Тема Автор DL S | L
Фильмы [HD 720p, 1080p] (Хороший звук DUB, MVO) [ 9.87 GB ] Ученик экзорциста / The Seventh Day [2021 BDRip 1080p] bober100 Скачать
2 | 1
Фильмы 2021 [DVDrip, WEB-DLRip, HDrip] (DUB, MVO) [ 2.05 GB ] Ученик экзорциста / The Seventh Day [2021 HDRip-AVC] от MediaBit Lithuania Скачать
1 | 0
Фильмы 2021 [DVDrip, WEB-DLRip, HDrip] (DUB, MVO) [ 1.42 GB ] Ученик экзорциста / The Seventh Day [2021 BDRip] - Twi7ter Скачать
10 | 0
Фильмы 2021 [DVDrip, WEB-DLRip, HDrip] (DUB, MVO) [ 1.46 GB ] Ученик экзорциста / The Seventh Day [2021 BDRip] bober100 Скачать
3 | 0

28-11-2019 20:33  

Отключить всю рекламу на сайте

    Дорогой пользователь! Огромная просьба, поблагодарите релизера, оцените раздачу и оставьте свои комментарий, если Вы скачали Ученик экзорциста через торрент бесплатно!
    Комментировать посты могут только пользователи прошедшие не сложную регистрацию
    Показать сообщения:    

    Ученик экзорциста через торрент
    Скачать бесплатно Ученик экзорциста
    Ученик экзорциста скачать торрент
    Ученик экзорциста смотреть онлайн
    Cкачать фильм Ученик экзорциста бесплатно
    Ученик экзорциста скачать торрент в хорошем качестве
    Ученик экзорциста смотреть онлайн бесплатно в хорошем качестве


    Вы не можете начинать темы
    Вы не можете отвечать на сообщения
    Вы не можете редактировать свои сообщения
    Вы не можете удалять свои сообщения
    Вы не можете голосовать в опросах
    Вы не можете прикреплять файлы к сообщениям
    Вы можете скачивать файлы