1 сезон

3 сезон

iTunes

1

iTunes

DUB Netflix

iTunes

13

1 сезон

RePack

30

Deluxe

pack

Легкие деньги

ВАЖНО

ИГРА 18+

pack

RePack

MK11

RePack

jed

RePack

fifa19

RePack

RDR2

RePack

NEED FOR SPEED™ PAYBACK

4 сезон

9 сезон

Бесстыжие 9 сезон

Все сериалы

все сериалы на PB.wtf

RePack

FAR CRY 5

Anonymous, добрый день, мы не успеваем до 1 числа собрать деньги на оплату серверов, помогите нам пожалуйста в это трудное время. В качестве благодарности мы отключим Вам всю рекламу на сайте (укажите свой ник в строку Ваше имя)!

×
  
Magnet ссылка

Минари / Minari (Ли Айзек Чун) [2020, драма, BDRip 1080p] [DUB] [iTunes] pb.wtf

Минари через торрент pb.wtf

Раздают: 10 [ 395 KB/s ]
Размер: 8.58 GB | Добавлен: 20 д. назад | Торрент скачан:84 раза
Скачать  

08-05-2021 16:22 Минари Скачать торрент  

Минари / Minari

Год выпуска: 2020
Страна: США
Жанр: драма
Продолжительность: 01:55:12
Перевод: Дублированный [iTunes]

Режиссер: Ли Айзек Чун / Lee Isaac Chung
В ролях: Стивен Юн, Хан Е-ри, Юн Ё-джон, Алан С. Ким, Ноэль Чо, Уилл Пэттон, Скотт Хэйз, Эрик Старки, Эстер Мун, Дэррил Кокс
Описание: Молодая корейская семья переезжает в американскую глубинку, где отец-мечтатель намеревается в чистом поле возвести сад, построить ферму и наконец-таки стать успешным членом общества. Следом приезжает бабушка, которая почитает традиции, относится ко всему с юмором, но становится незримой поддержкой для молодого семейства, которому предстоит испытать невероятные сложности на пути к осуществлению «американской мечты».
rating


Качество видео: BDRip 1080p
Формат видео: MKV
Видео: MPEG-4 AVC, 8758 Кбит/с, 1920x804, 23.976 кадр/с
Аудио: 48 kHz, Русский (AC3, 6 ch, 384 Кбит/с)
Аудио: 48 kHz, корейский (E-AC3, 6 ch, 640 Кбит/с)
Субтитры: Русские (форс., полные), английские (хардсаб на кор. речь, полные)
Общее
Уникальный идентификатор: 254022460573622036395699360409768361632 (0xBF1AF2431CFBFF73A9B10EF46602FEA0)
Полное имя: D: \ Загрузки \ Minari.2020.x264.BDRip. (1080p) .OlLanDGroup.mkv
Формат: Matroska
Версия формата: Версия 4 / Версия 2
Размер файла: 8,58 Гбайт
Продолжительность: 1 ч. 55 м.
Общий поток: 10,7 Мбит / сек
Название фильма: Минари.2020.Rip by: ollan
Дата кодирования: UTC 2021-05-25 18:55:12
Программа кодирования: mkvmerge v6.5.0 ('Isn't she pretty') от 20 октября 2013 г., 12:50:05
Библиотека кодирования: libebml v1.3.0 + libmatroska v1.4.1
Обложка: Да
Вложения: Обложка - Minari.png

Видео
Идентификатор: 1
Формат: AVC
Формат / Информация: Расширенный видеокодекФормат профиля
: High@L4.1
Настройки формата: CABAC / 5 Ref Frames
Параметр формата CABAC: Да
Параметр ReFrames формата: 5 кадров
Идентификатор кодека: V_MPEG4 / ISO / AVC
Продолжительность: 1 ч. 55 м.
Битрейт: 8758 Кбит / сек
Ширина: 1920 пикселей
Высота: 804 пикселя
Соотношение сторон: 2,40: 1
Режим частоты кадров: Постоянный
Частота кадров: 23,976 (24000/1001) кадра / сек
Цветовое пространство: YUV
Субдискретизация насыщенности: 4: 2: 0
Битовая глубина: 8 бит
Тип развёртки: Прогрессивная
Бит / (Пиксели * Кадры): 0.237
Размер потока: 6,88 Гбайт (80%)
Библиотека кодирования: x264 core 146 r2538 121396c
Настройки программы: cabac = 1 / ref = 5 / deblock = 1: -3: -3 / analysis = 0x3: 0x133 / me = umh / subme = 11 / psy = 1 / psy_rd = 1.00: 0.10 / mixed_ref = 1 / me_range = 64 / chroma_me = 1 / trellis = 2 / 8x8dct = 1 / cqm = 0 / deadzone = 21,11 / fast_pskip = 0 / chroma_qp_offset = -3 / threads = 12 / lookahead_threads = 3 / spled_threads = 0 / nr = 0 / decimate = 0 / interlaced = 0 / bluray_compat = 0 / constrained_intra = 0 / bframes = 10 / b_pyramid = 2 / b_adapt = 2 / b_bias = 0 / direct = 3 / weightb = 1 / open_gop = 0 / weightp = 2 / keyint = 240 / keyint_min = 23 / scenecut = 40 / intra_refresh = 0 / rc_lookahead = 40 / rc = 2pass / mbtree = 0 / bitrate = 8758 / ratetol = 1.0 / qcomp = 0.60 / qpmin = 0 / qpmax = 69 / qpstep = 4 / cplxblur = 20.0 / qblur = 0.5 / vbv_maxrate = 50000 / vbv_bufsize = 62500 / nal_hrd = none / filler = 0 / ip_ratio = 1.40 / pb_ratio = 1.30 / aq = 1: 1.00
Язык: корейский
По умолчанию: Да
Принудительно: Нет

Аудио # 1
Идентификатор: 2
Формат: AC-3
Формат / Информация: Audio Coding 3
Идентификатор кодека: A_AC3
Продолжительность: 1 ч. 55 м.
Вид битрейта: Постоянный
Битрейт: 384 Кбит / сек
Каналы: 6 каналов
Расположение каналов: Фронт: LCR, Сторона: LR, LFE
Частота: 48,0 КГц
Частота кадров: 31 250 кадров / сек (1536 SPF)
Битовая глубина: 16 бит
Метод сжатия: С потерями
Размер потока: 316 Мбайт (4%)
Заголовок: Кинопоиск
Язык: русский
Вид услуги: Полная основная
По умолчанию: Да
Принудительно: Нет

Аудио # 2
Идентификатор: 3
Формат: DTS
Формат / Информация: Цифровые театральные системы
Идентификатор кодека: A_DTS
Продолжительность: 1 ч. 55 м.
Вид битрейта: Постоянный
Битрейт: 1509 Кбит / сек
Каналы: 6 каналов
Расположение каналов: Фронт: LCR, Сторона: LR, LFE
Частота: 48,0 КГц
Частота кадров: 93750 кадра / сек (512 SPF)
Битовая глубина: 24 бит
Метод сжатия: С потерями
Размер потока: 1,21 Гбайт (14%)
Язык: английский
По умолчанию: Нет
Принудительно: Нет

Текст # 1
Идентификатор: 4
Формат: UTF-8
Идентификатор кодека: S_TEXT / UTF8
Идентификатор кодека / Информация: UTF-8 Plain Text
Заголовок: Принудительный
Язык: русский
По умолчанию: Да
Принудительно: Нет

Текст # 2
Идентификатор: 5
Формат: UTF-8
Идентификатор кодека: S_TEXT / UTF8
Идентификатор кодека / Информация: UTF-8 Plain Text
Заголовок: Полный
Язык: русский
По умолчанию: Нет
Принудительно: Нет

Текст # 3
Идентификатор: 6
Формат: UTF-8
Идентификатор кодека: S_TEXT / UTF8
Идентификатор кодека / Информация: UTF-8 Plain Text
Заголовок: Полный
Язык: английский
По умолчанию: Нет
Принудительно: Нет

Меню
00: 00: 00.000:: Глава 01
00: 07: 22.212:: Глава 02
00: 17: 22.238:: Глава 03
00: 25: 46.857:: Глава 04
00: 33: 08.705:: Глава 05
00: 39: 17.041:: Глава 06
00: 47: 27.480:: Глава 07
00: 55: 08.721:: Глава 08
01: 03: 07.950:: Глава 09
01: 12: 24.078:: Глава 10
01: 20: 29.720:: Глава 11
01: 29: 45.796:: Глава 12
01: 41: 04.026:: Глава 13
01: 53: 28.623:: Глава 14
02: 07: 40.986:: Глава 15
02: 16: 25.677:: Глава 16
скриншот  скриншот  скриншот  
pb.wtf



Скачать Минари через торрент https://d.radikal.ru/d18/2103/58/65ae465e539b.jpg Скачать фильм Минари через торрент бесплантно в хорошем качестве Описание: Молодая корейская семья переезжает в американскую глубинку, где отец-мечтатель намеревается в чистом поле возвести сад, построить ... 9.8 10 4
Торрент: Зарегистрирован [2021-05-29 15:31] · скачан: 84 раз
Статус: √ проверено
Размер: 8.58 GB
Как cкачать? Как скачать Минари через торрент | UTorrent

28-11-2019 20:33  

Отключить всю рекламу на сайте

30-05-2021 13:22 Минари Скачать торрент  

как фильм?pb.wtf



    Дорогой пользователь! Огромная просьба, поблагодарите релизера, оцените раздачу и оставьте свои комментарий, если Вы скачали Минари через торрент бесплатно! Внесите свою лепту в развитие PiratBit!
    Комментировать посты могут только пользователи прошедшие не сложную регистрацию
    Показать сообщения:    

    Минари через торрент
    Скачать бесплатно Минари
    Минари скачать торрент
    Минари смотреть онлайн
    Cкачать фильм Минари бесплатно
    Минари скачать торрент в хорошем качестве
    Минари смотреть онлайн бесплатно в хорошем качестве


    Вы не можете начинать темы
    Вы не можете отвечать на сообщения
    Вы не можете редактировать свои сообщения
    Вы не можете удалять свои сообщения
    Вы не можете голосовать в опросах
    Вы не можете прикреплять файлы к сообщениям
    Вы можете скачивать файлы