1 сезон

3 сезон

iTunes

1

iTunes

DUB Netflix

iTunes

13

1 сезон

RePack

30

Deluxe

pack

Легкие деньги

ВАЖНО

ИГРА 18+

pack

RePack

MK11

RePack

jed

RePack

fifa19

RePack

RDR2

RePack

NEED FOR SPEED™ PAYBACK

4 сезон

9 сезон

Бесстыжие 9 сезон

Все сериалы

все сериалы на PB.wtf

RePack

FAR CRY 5

Anonymous, добрый день, мы не успеваем до 1 числа собрать деньги на оплату серверов, помогите нам пожалуйста в это трудное время. В качестве благодарности мы отключим Вам всю рекламу на сайте (укажите свой ник в строку Ваше имя)!

×
  
Magnet ссылка

Под листьями / Beneath the Leaves (Адам Марино) [2019, Триллер, WEB-DL 1080p] MVO [HDRezka Studio] pb.wtf

Под листьями через торрент pb.wtf

Раздают: 2 [ 0 KB/s ]
Размер: 4.46 GB | Добавлен: 1 мес. 10 д. назад | Торрент скачан:31 раз
Скачать  

08-05-2021 18:31 Под листьями Скачать торрент  

Под листьями | Beneath the Leaves
Год выпуска: 2019
Страна: США
Студия: Reel Fire Entertainment
Жанр: Триллер
Продолжительность: 01:30:24
Перевод: Профессиональный (многоголосый) | HDRezka Studio
Субтитры: Английские, испанские

Режиссер: Адам Марино

rating

В ролях: Даг Джонс, Мира Сорвино, Кристоффер Полаха, Мелора Уолтерс, Кристофер Мастерсон, Сер’Дариус Блэйн, Лили Бордан, Дон Суэйзи, Пол Сорвино, Кристофер Бакус

Описание: Психопат Джеймс Уитли похищает четырех мальчиков. Его попытка воссоединить приемных детей с покойными биологическими родителями заканчивается освобождением детей и его арестом. Через двадцать лет во время пожара в тюрьме Уитли сбегает и собирается закончить начатое. Детектива Ларсона, бывшую жертву Уитли, отстраняют от дела, теперь им занимается его коллега и любовница детектив Шотвелл. Гнев и шанс на искупление заставляют Ларсона преследовать психопата, из-за чего он попадает в ту же ловушку, из который выбрался в детстве.

Качество: WEB-DL 1080p
Формат: MKV

Видео: MPEG-4 AVC, 5973 Кбит/с, 1920х800, 23.976 fps
Аудио#1: Русский: AC3, 6 ch, 448 Кбит/с - HDRezka Studio
Аудио#2: Английский: E-AC3, 6 ch, 640 Кбит/с - Original
скриншот  скриншот  скриншот  

скриншот  скриншот  скриншот  

Unique ID : 177185528184442060925215166217021387586 (0x854CB1027D828893F04DC389890D7342)
Complete name : Beneath.the.Leaves.2019.AMZN.WEB-DL.1080p.mkv
Format : Matroska
Format version : Version 4
File size : 4.46 GiB
Duration : 1 h 30 min
Overall bit rate : 7 064 kb/s
Encoded date : UTC 2021-05-08 15:00:07
Writing application : mkvmerge v20.0.0 ('I Am The Sun') 64-bit
Writing library : libebml v1.3.5 + libmatroska v1.4.8

Video
ID : 1
Format : AVC
Format/Info : Advanced Video Codec
Format profile : High@L4
Format settings : CABAC / 4 Ref Frames
Format settings, CABAC : Yes
Format settings, Reference frames : 4 frames
Codec ID : V_MPEG4/ISO/AVC
Duration : 1 h 30 min
Bit rate mode : Constant
Bit rate : 5 973 kb/s
Nominal bit rate : 10 000 kb/s
Width : 1 920 pixels
Height : 800 pixels
Display aspect ratio : 2.40:1
Frame rate mode : Constant
Frame rate : 23.976 (24000/1001) FPS
Color space : YUV
Chroma subsampling : 4:2:0
Bit depth : 8 bits
Scan type : Progressive
Bits/(Pixel*Frame) : 0.162
Stream size : 3.77 GiB (85%)
Language : English
Default : Yes
Forced : No
Color range : Limited
Color primaries : BT.709
Transfer characteristics : BT.709
Matrix coefficients : BT.709

Audio #1
ID : 2
Format : AC-3
Format/Info : Audio Coding 3
Commercial name : Dolby Digital
Codec ID : A_AC3
Duration : 1 h 30 min
Bit rate mode : Constant
Bit rate : 448 kb/s
Channel(s) : 6 channels
Channel layout : L R C LFE Ls Rs
Sampling rate : 48.0 kHz
Frame rate : 31.250 FPS (1536 SPF)
Compression mode : Lossy
Stream size : 290 MiB (6%)
Title : MVO HDRezka Studio
Language : Russian
Service kind : Complete Main
Default : Yes
Forced : No

Audio #2
ID : 3
Format : E-AC-3
Format/Info : Enhanced AC-3
Commercial name : Dolby Digital Plus
Codec ID : A_EAC3
Duration : 1 h 30 min
Bit rate mode : Constant
Bit rate : 640 kb/s
Channel(s) : 6 channels
Channel layout : L R C LFE Ls Rs
Sampling rate : 48.0 kHz
Frame rate : 31.250 FPS (1536 SPF)
Compression mode : Lossy
Stream size : 414 MiB (9%)
Language : English
Service kind : Complete Main
Default : No
Forced : No

Text #1
ID : 4
Format : UTF-8
Codec ID : S_TEXT/UTF8
Codec ID/Info : UTF-8 Plain Text
Duration : 1 h 29 min
Bit rate : 47 b/s
Count of elements : 1232
Stream size : 31.1 KiB (0%)
Language : English
Default : No
Forced : No

Text #2
ID : 5
Format : UTF-8
Codec ID : S_TEXT/UTF8
Codec ID/Info : UTF-8 Plain Text
Duration : 1 h 29 min
Bit rate : 51 b/s
Count of elements : 1232
Stream size : 33.4 KiB (0%)
Language : Spanish
Default : No
Forced : No

pb.wtf



Скачать Под листьями через торрент https://i114.fastpic.ru/big/2021/0508/97/b8b4751488c332c762ef639f70443597.jpg Скачать фильм Под листьями через торрент бесплантно в хорошем качестве Описание: Психопат Джеймс Уитли похищает четырех мальчиков. Его попытка воссоединить приемных детей с покойными биологическими родителями ... 10 10 2
Торрент: Зарегистрирован [2021-05-08 18:31] · скачан: 31 раз
Статус: √ проверено
Размер: 4.46 GB
Как cкачать? Как скачать Под листьями через торрент | UTorrent

% Раздел Тема Автор DL S | L
T Фильмы 2019-2020 [DVDrip, WEB-DLRip, HDrip] (DUB, MVO) [ 1.48 GB ] Под листьями / Beneath the Leaves [2019 WEB-DLRip-AVC] MVO [HDRezka Studio] - ExKinoRay Enigma2010 Скачать
5 | 0

28-11-2019 20:33  

Отключить всю рекламу на сайте

    Дорогой пользователь! Огромная просьба, поблагодарите релизера, оцените раздачу и оставьте свои комментарий, если Вы скачали Под листьями через торрент бесплатно! Внесите свою лепту в развитие PiratBit!
    Комментировать посты могут только пользователи прошедшие не сложную регистрацию
    Показать сообщения:    

    Под листьями через торрент
    Скачать бесплатно Под листьями
    Под листьями скачать торрент
    Под листьями смотреть онлайн
    Cкачать фильм Под листьями бесплатно
    Под листьями скачать торрент в хорошем качестве
    Под листьями смотреть онлайн бесплатно в хорошем качестве


    Вы не можете начинать темы
    Вы не можете отвечать на сообщения
    Вы не можете редактировать свои сообщения
    Вы не можете удалять свои сообщения
    Вы не можете голосовать в опросах
    Вы не можете прикреплять файлы к сообщениям
    Вы можете скачивать файлы