Присоединяйтесь к нам в Telegram!, здесь всегда актуальный адрес сайта, оперативная поддержка и многое другое!!

>

5.9

iTunes

7.4

iTunes

9.4

1 сезон

1

7.4

2 сезон

7.2

iTunes

7.3

1 сезон

13

6.1

iTunes

8.3

GOG

30

ULTIMATE

pack

9.9

Лицензия

ВАЖНО

ИГРА 18+

pack

7.3

RePack

MK11

7.7

RePack

jed

7.8

RePack

fifa19

8.5

RePack

RDR2

RePack

NEED FOR SPEED™ PAYBACK

5 сезон

9 сезон

Бесстыжие 9 сезон

Все сериалы

все сериалы на PB.wtf

RePack

FAR CRY 5

Anonymous, добрый вечер, мы катастрофически не успеваем собрать деньги на оплату серверов, помогите нам пожалуйста 5,10,15р., для нас важна любая помощь . В качестве благодарности мы отключим Вам всю рекламу на сайте (укажите свой ник в строку Ваше имя)!

×
  
Magnet ссылка

Ученик экзорциста / The Seventh Day (Джастин П. Ланж) [2021, ужасы, HDRip-AVC] DUB [iTunes] от MediaBit pb.wtf

Ученик экзорциста через торрент pb.wtf

Размер: 2.05 GB | Добавлен: 6 мес. назад | Торрент скачан:113 раз
Смотреть онлайн Ученик экзорциста | Скачать    Ребята, помогите собрать деньги на оплату серверов!!!

09-05-2021 07:46 Ученик экзорциста Скачать торрент  


Ученик экзорциста / The Seventh Day
Информация о фильме:
Название: Ученик экзорциста
Оригинальное название: The Seventh Day
Год выхода: 2021
Жанр: ужасы
Режиссер: Джастин П. Ланж
В ролях: Гай Пирс, Кит Дэвид, Стивен Лэнг, Робин Бартлетт, Вадир Дербес, Хит Фриман, Ханна Калуэлл, Брэйди Дженнесс, Бен Хикс, Акорье Уайт

Описание: Священник-новичок в первый же день практики в школе экзорцистов сталкивается с очень сложным случаем одержимости. Под руководством бывалого наставника ему придется погрузиться в ад на земле, столкнуться с собственными демонами и разобраться, почему школа готовит всё новых экзорцистов, а одержимых становится только больше.



Страна: США
Студия: Russell FX, Lucky Production
Продолжительность: 01:27:10
Перевод: Дублированное - iTunes



Информация о файле:
Кодек: AVC
Формат: MKV
Качество: HDRip-AVC
Видео: MPEG-4 AVC, 1024x428, 23.976 fps, 2515 kbps
Аудио RU: AC3, 6 ch, 48 kHz, 384 kbps
Аудио EN: AC3, 6 ch, 48 kHz, 448 kbps
Навигация по главам: Да

x264 info: frame I:777 Avg QP: 9.21 size: 77956
x264 info: frame P:23260 Avg QP:12.26 size: 29363
x264 info: frame B:102033 Avg QP:14.35 size: 8883

General
Unique ID : 336857270134741162339197403422501200102 (0xFD6C59B0C7C3E8F53386FAB96B4D60E6)
Complete name : D:uTorrentРипы_от_wolf1245_MediaBitUcenik.ekzorcista.2021.DUB.iTunes.HDRip-AVC.[wolf1245.MediaBit].mkv
Format : Matroska
Format version : Version 4
File size : 2.05 GiB
Duration : 1 h 27 min
Overall bit rate : 3 344 kb/s
Movie name : Ucenik.ekzorcista.2021.DUB.iTunes.HDRip-AVC.[wolf1245.MediaBit]
Encoded date : UTC 2021-05-09 07:33:46
Writing application : mkvmerge v56.1.0 ('My Friend') 64-bit
Writing library : libebml v1.4.2 + libmatroska v1.6.4

Video
ID : 1
Format : AVC
Format/Info : Advanced Video Codec
Format profile : High@L4.1
Format settings : CABAC / 14 Ref Frames
Format settings, CABAC : Yes
Format settings, Reference frames : 14 frames
Codec ID : V_MPEG4/ISO/AVC
Duration : 1 h 27 min
Bit rate : 2 515 kb/s
Width : 1 024 pixels
Height : 428 pixels
Display aspect ratio : 2.40:1
Frame rate mode : Constant
Frame rate : 23.976 (24000/1001) FPS
Color space : YUV
Chroma subsampling : 4:2:0
Bit depth : 8 bits
Scan type : Progressive
Bits/(Pixel*Frame) : 0.239
Stream size : 1.54 GiB (75%)
Title : .[wolf1245.MediaBit]
Writing library : x264 core 157 r2958 57baac4
Encoding settings : cabac=1 / ref=14 / deblock=1:-3:-3 / analyse=0x3:0x133 / me=umh / subme=11 / psy=1 / psy_rd=1.02:0.05 / mixed_ref=1 / me_range=47 / chroma_me=1 / trellis=2 / 8x8dct=1 / cqm=0 / deadzone=21,11 / fast_pskip=1 / chroma_qp_offset=-3 / threads=10 / lookahead_threads=2 / sliced_threads=0 / nr=0 / decimate=1 / interlaced=0 / bluray_compat=0 / constrained_intra=0 / bframes=12 / b_pyramid=2 / b_adapt=2 / b_bias=0 / direct=3 / weightb=1 / open_gop=0 / weightp=2 / keyint=240 / keyint_min=24 / scenecut=40 / intra_refresh=0 / rc_lookahead=100 / rc=2pass / mbtree=1 / bitrate=2515 / ratetol=1.0 / qcomp=0.60 / qpmin=0 / qpmax=69 / qpstep=4 / cplxblur=20.0 / qblur=0.5 / vbv_maxrate=50000 / vbv_bufsize=62500 / nal_hrd=none / filler=0 / ip_ratio=1.40 / aq=1:0.80
Language : English
Default : Yes
Forced : No
Color range : Limited
Color primaries : BT.709
Transfer characteristics : BT.709
Matrix coefficients : BT.709

Audio #1
ID : 2
Format : AC-3
Format/Info : Audio Coding 3
Commercial name : Dolby Digital
Codec ID : A_AC3
Duration : 1 h 27 min
Bit rate mode : Constant
Bit rate : 384 kb/s
Channel(s) : 6 channels
Channel layout : L R C LFE Ls Rs
Sampling rate : 48.0 kHz
Frame rate : 31.250 FPS (1536 SPF)
Bit depth : 16 bits
Compression mode : Lossy
Stream size : 241 MiB (11%)
Title : DUB | (iTunes)
Language : Russian
Service kind : Complete Main
Default : Yes
Forced : No

Audio #2
ID : 3
Format : AC-3
Format/Info : Audio Coding 3
Commercial name : Dolby Digital
Codec ID : A_AC3
Duration : 1 h 27 min
Bit rate mode : Constant
Bit rate : 448 kb/s
Channel(s) : 6 channels
Channel layout : L R C LFE Ls Rs
Sampling rate : 48.0 kHz
Frame rate : 31.250 FPS (1536 SPF)
Bit depth : 16 bits
Compression mode : Lossy
Stream size : 281 MiB (13%)
Title : Original
Language : English
Service kind : Complete Main
Default : No
Forced : No

Menu
00:00:00.000 : :Глава 01
00:08:34.931 : :Глава 02
00:16:33.659 : :Глава 03
00:25:15.180 : :Глава 04
00:32:52.637 : :Глава 05
00:39:37.166 : :Глава 06
00:46:05.012 : :Глава 07
00:50:44.792 : :Глава 08
00:57:03.837 : :Глава 09
01:03:51.619 : :Глава 10
01:10:59.421 : :Глава 11
01:17:50.499 : :Глава 12
01:23:24.166 : :Глава 13
Релиз от: &
Автор релиза:
pb.wtf



Скачать Ученик экзорциста через торрент https://i114.fastpic.ru/big/2021/0402/49/ee90703ebe64f4864c3b49d0f121ce49.jpg Скачать, смотреть онлайн Ученик экзорциста бесплантно в хорошем качестве Описание: Священник-новичок в первый же день практики в школе экзорцистов сталкивается с очень сложным случаем одержимости. Под ... 10 10 5
Торрент: Зарегистрирован [2021-05-09 07:46] · скачан: 113 раз
Статус: √ проверено
Размер: 2.05 GB
Как cкачать? Как скачать Ученик экзорциста через торрент | UTorrent

28-11-2019 20:33  

Отключить всю рекламу на сайте

    Дорогой пользователь! Огромная просьба, поблагодарите релизера, оцените раздачу и оставьте свои комментарий, если Вы скачали Ученик экзорциста через торрент бесплатно!
    Комментировать посты могут только пользователи прошедшие не сложную регистрацию
    Показать сообщения:    

    Ученик экзорциста через торрент
    Скачать бесплатно Ученик экзорциста
    Ученик экзорциста скачать торрент
    Ученик экзорциста смотреть онлайн
    Cкачать фильм Ученик экзорциста бесплатно
    Ученик экзорциста скачать торрент в хорошем качестве
    Ученик экзорциста смотреть онлайн бесплатно в хорошем качестве


    Вы не можете начинать темы
    Вы не можете отвечать на сообщения
    Вы не можете редактировать свои сообщения
    Вы не можете удалять свои сообщения
    Вы не можете голосовать в опросах
    Вы не можете прикреплять файлы к сообщениям
    Вы можете скачивать файлы