Достать ножи: Стеклянная луковица

MVO

Добыча

Дубляж

Уэнсдэй

1 сезон

Тор

Дубляж

13 клиническая

1 сезон

Жестокая ночь

MVO

Одни из нас

1 сезон

Deluxe

pack

Рекомендуем

30

Пиратка

ВАЖНО

ВАЖНО

Ghostwire

Пиратка

jed

RePack

nioh2

RePack

RDR2

RePack

NEED FOR SPEED™ PAYBACK

RePack

скачать торрент

Кинопоиск HD

Острые козырьки 6 сезон

6 сезон

FAR CRY 6

RePack

скачать торрент

Лицензия

скачать торрент

MVO

1

1 сезон

скачать торрент

1 сезон

скачать торрент

Лицензия

  

Поколение Вояджер / Voyagers (Нил Бёргер) [2021, Фантастика, драма, триллер, WEB-DLRip-AVC] MVO [HDRezka] от MediaBit

Поколение Вояджер через торрент pb.wtf

Раздают: 1 [ 0 KB/s ]
Размер: 2.04 GB | Добавлен: 1 год 8 мес. назад | Торрент скачан:593 раза
Смотреть онлайн | Скачать | Поддержите нас   

09-05-2021 11:35 Поколение Вояджер Скачать торрент  


Поколение Вояджер / Voyagers
Название: Поколение Вояджер
Оригинальное название: Voyagers
Год выхода: 2021
Жанр: Фантастика, драма, триллер
Режиссер: Нил Бёргер

В ролях: Колин Фаррелл, Тай Шеридан, Айзек Хемпстед-Райт, Лили-Роуз Депп, Финн Уайтхед, Мэдисон Ху, Чант Адамс, Вивейк Калра, Арчи Рено, Куинтесса Суинделл, Вероника Фалькон, Арчи Мадекве, Верн Ли, Эйприл Грэйс, Лора Дрейфус

Описание: Из-за глобального потепления в 2063 году был запущен проект выживания человечества. Из биоматериала специально отобранных доноров в пробирках была выращена группа детей. Они не покидали стен лаборатории — жили там и обучались под неустанным контролем, чтобы не привыкать к солнечному свету и открытым пространствам. Совсем ещё молодыми людьми они отправляются в путешествие к далёкой подходящей для жизни планете, но долетят дотуда в лучшем случае их внуки. Вскоре друзья Зак и Кристофер выясняют, что в витаминном напитке, который вся команда, за исключением сопровождающего их взрослого, принимает каждый день, содержится вещество, делающее их спокойными и послушными.



Страна: США, Чехия, Румыния, Великобритания
Студия: AGC Studios, Fibonacci Films, Freecs Films, Icon Films, Ingenious Media, Not A Bene Productions, Stillking Fil, Thunder Road
Продолжительность: 01:47:58
Перевод: Профессиональный (многоголосый, закадровый) - HDRezka



Информация о файле:
Кодек: AVC
Формат: MKV
Качество: WEB-DLRip-AVC
Видео: MPEG-4 AVC, 1024x428, 23.976 fps, 1820 kbps
Аудио RU: AC3, 6 ch, 48 kHz, 448 kbps
Аудио EN: AC3, 6 ch, 48 kHz, 448 kbps
Субтитры: Русские (Forced), английские
Навигация по главам: Нет

семпл
x264 info: frame I:1281 Avg QP:11.71 size: 72753
x264 info: frame P:36056 Avg QP:15.25 size: 19950
x264 info: frame B:117980 Avg QP:18.14 size: 5559
General
Unique ID : 224796409594587099586299098244286654842 (0xA91E36B29C8BDD5916B2D591B96E297A)
Complete name : D:uTorrentРипы_от_wolf1245_MediaBitPakalenie.Vojadzer.2021.MVO.HDRezka.WEB-DLRip-AVC.[wolf1245.MediaBit].mkv
Format : Matroska
Format version : Version 4
File size : 2.04 GiB
Duration : 1 h 47 min
Overall bit rate : 2 711 kb/s
Movie name : Pakalenie.Vojadzer.2021.MVO.HDRezka.WEB-DLRip-AVC.[wolf1245.MediaBit]
Encoded date : UTC 2021-05-09 11:20:23
Writing application : mkvmerge v56.1.0 ('My Friend') 64-bit
Writing library : libebml v1.4.2 + libmatroska v1.6.4

Video
ID : 1
Format : AVC
Format/Info : Advanced Video Codec
Format profile : [email protected]
Format settings : CABAC / 14 Ref Frames
Format settings, CABAC : Yes
Format settings, Reference frames : 14 frames
Codec ID : V_MPEG4/ISO/AVC
Duration : 1 h 47 min
Bit rate : 1 820 kb/s
Width : 1 024 pixels
Height : 428 pixels
Display aspect ratio : 2.40:1
Frame rate mode : Constant
Frame rate : 23.976 (24000/1001) FPS
Color space : YUV
Chroma subsampling : 4:2:0
Bit depth : 8 bits
Scan type : Progressive
Bits/(Pixel*Frame) : 0.173
Stream size : 1.37 GiB (67%)
Title : .[wolf1245.MediaBit]
Writing library : x264 core 157 r2958 57baac4
Encoding settings : cabac=1 / ref=14 / deblock=1:-3:-3 / analyse=0x3:0x133 / me=umh / subme=11 / psy=1 / psy_rd=1.03:0.07 / mixed_ref=1 / me_range=48 / chroma_me=1 / trellis=2 / 8x8dct=1 / cqm=0 / deadzone=21,11 / fast_pskip=1 / chroma_qp_offset=-3 / threads=10 / lookahead_threads=2 / sliced_threads=0 / nr=0 / decimate=1 / interlaced=0 / bluray_compat=0 / constrained_intra=0 / bframes=12 / b_pyramid=2 / b_adapt=2 / b_bias=0 / direct=3 / weightb=1 / open_gop=0 / weightp=2 / keyint=240 / keyint_min=24 / scenecut=40 / intra_refresh=0 / rc_lookahead=100 / rc=2pass / mbtree=1 / bitrate=1820 / ratetol=1.0 / qcomp=0.60 / qpmin=0 / qpmax=69 / qpstep=4 / cplxblur=20.0 / qblur=0.5 / vbv_maxrate=50000 / vbv_bufsize=62500 / nal_hrd=none / filler=0 / ip_ratio=1.40 / aq=1:0.80
Language : English
Default : Yes
Forced : No
Color range : Limited
Color primaries : BT.709
Transfer characteristics : BT.709
Matrix coefficients : BT.709

Audio #1
ID : 2
Format : AC-3
Format/Info : Audio Coding 3
Commercial name : Dolby Digital
Codec ID : A_AC3
Duration : 1 h 47 min
Bit rate mode : Constant
Bit rate : 448 kb/s
Channel(s) : 6 channels
Channel layout : L R C LFE Ls Rs
Sampling rate : 48.0 kHz
Frame rate : 31.250 FPS (1536 SPF)
Bit depth : 16 bits
Compression mode : Lossy
Stream size : 346 MiB (17%)
Title : MVO | [HDRezka]
Language : Russian
Service kind : Complete Main
Default : Yes
Forced : No

Audio #2
ID : 3
Format : AC-3
Format/Info : Audio Coding 3
Commercial name : Dolby Digital
Codec ID : A_AC3
Duration : 1 h 47 min
Bit rate mode : Constant
Bit rate : 448 kb/s
Channel(s) : 6 channels
Channel layout : L R C LFE Ls Rs
Sampling rate : 48.0 kHz
Frame rate : 31.250 FPS (1536 SPF)
Bit depth : 16 bits
Compression mode : Lossy
Stream size : 346 MiB (17%)
Title : Original
Language : English
Service kind : Complete Main
Default : No
Forced : No

Text #1
ID : 4
Format : UTF-8
Codec ID : S_TEXT/UTF8
Codec ID/Info : UTF-8 Plain Text
Duration : 1 h 36 min
Bit rate : 1 b/s
Count of elements : 28
Stream size : 1.28 KiB (0%)
Title : Forced
Language : Russian
Default : Yes
Forced : Yes
Text #2
ID : 5
Format : UTF-8
Codec ID : S_TEXT/UTF8
Codec ID/Info : UTF-8 Plain Text
Duration : 1 h 37 min
Bit rate : 45 b/s
Count of elements : 1240
Stream size : 32.8 KiB (0%)
Title : SDH
Language : English
Default : No
Forced : No
Релиз от: amp; MediaBit




Скачать Поколение Вояджер через торрент https://i114.fastpic.ru/big/2021/0509/91/c5d53f944e060936705aa5d595ddf991.png Скачать, смотреть онлайн Поколение Вояджер бесплантно в хорошем качестве Описание: Из-за глобального потепления в 2063 году был запущен проект выживания человечества. Из биоматериала специально отобранных ... 10 10 14
Info! Золотая раздача, скачанное не засчитывается.
Торрент: Зарегистрирован [2021-05-09 11:35] · скачан: 593 раз
Статус: √ проверено
Размер: 2.04 GB
Как cкачать? Как скачать Поколение Вояджер через торрент | UTorrent

28-11-2019 20:33  


Отключить вcю реклaмy на сайте, в т.ч. и в плеере онлайн просмотра!

    Дорогой пользователь! Огромная просьба, поблагодарите релизера, оцените раздачу и оставьте свои комментарий, если Вы скачали Поколение Вояджер через торрент бесплатно!!
    Комментировать посты могут только пользователи прошедшие не сложную регистрацию
    Показать сообщения:    


    Поколение Вояджер через торрент
    Скачать бесплатно Поколение Вояджер
    Поколение Вояджер скачать торрент
    Поколение Вояджер смотреть онлайн
    Cкачать фильм Поколение Вояджер бесплатно
    Поколение Вояджер скачать торрент в хорошем качестве
    Поколение Вояджер смотреть онлайн бесплатно в хорошем качестве
    Вы не можете начинать темы
    Вы не можете отвечать на сообщения
    Вы не можете редактировать свои сообщения
    Вы не можете удалять свои сообщения
    Вы не можете голосовать в опросах
    Вы не можете прикреплять файлы к сообщениям
    Вы можете скачивать файлы
    Поколение Вояджер / Voyagers [2021, Фантастика, драма, триллер, WEB-DLRip-AVC] MVO [HDRezka] от MediaBit смотреть онлайн, скачать торрент picoco.icu