Всегда рабочее зеркало без VPN и Proxy просто перед .vidak.icu напиши любое слово или цифру, Пример http://t8d7.vidak.icu

MVO

2 сезон

2 сезон

1

1 сезон

iTunes

2 сезон

13

1 сезон

Deluxe

pack

Рекомендуем

Пиратка

30

ВАЖНО

RePack

MK11

RePack

jed

RePack

fifa19

RePack

RDR2

RePack

NEED FOR SPEED™ PAYBACK

Кинопоиск HD

6 сезон

 Острые козырьки 6 сезон

Все сериалы

все сериалы на PB.wtf

RePack

FAR CRY 5

Anonymous, нам критически не хватает 5601 руб. на оплату серверов и переферии за Апрель, помоги нам пожалуйста, вся надежда только на тебя. В благодарность мы отключим тебе всю рекламу на сайте!

×
  
Magnet ссылка

Мортал Комбат / Mortal Kombat (Саймон Маккуойд) [2021 г., Боевик, фэнтези, фантастика, WEB-DLRip 720p / 60 FPS, Дубляж] от R.G. HD-Films pb.wtf

Мортал Комбат через торрент pb.wtf

Раздают: 2 [ 0 KB/s ]
Размер: 3.72 GB | Добавлен: 1 год назад | Торрент скачан:468 раз
Смотреть онлайн Мортал Комбат | Скачать    Ребята, помогите собрать деньги на оплату серверов!!!

12-05-2021 14:25 Мортал Комбат Скачать торрент  

Мортал Комбат / Mortal Kombat
Год выпуска: 2021
Страна: Австралия, США
Жанр: Боевик, фэнтези, фантастика
Продолжительность: 01:49:46
Перевод: Дубляж
Субтитры: Russian, English

Режиссер: Саймон Маккуойд

Бюджет: $55 000 000
Премьера в мире: 8 апреля 2021

rating

В ролях: Льюис Тан, Джо Таслим, Джессика МакНэми, Джош Лоусон, Мехкад Брукс, Матильда Кимбер, Лора Брент, Таданобу Асано, Хироюки Санада, Чинь Хань

Описание: Боец смешанных единоборств Коул Янг не раз соглашался проиграть за деньги. Он не знает о своем наследии и почему император Внешнего Мира Шан Цзун посылает своего лучшего воина, могущественного криомансера Саб-Зиро, на охоту за Коулом. Янг боится за безопасность своей семьи, и майор спецназа Джакс, обладатель такой же отметки в виде дракона, как и у Коула, советует ему отправиться на поиски Сони Блейд. Вскоре он оказывается в храме Лорда Рейдена, Старшего Бога и защитника Земного Царства, который дает убежище тем, кто носит метку. Здесь Коул тренируется с опытными воинами Лю Каном, Кун Лао и наемником-изгоем Кано, готовясь вместе с величайшими чемпионами Земли противостоять врагам из Внешнего Мира в битве за вселенную. Но сможет ли Коул приложить все усилия и раскрыть в себе аркану — могущественную силу его души, чтобы не только спасти свою семью, но и остановить Внешний Мир раз и навсегда?

Качество: WEB-DLRip 720p / 60 FPS
Формат: MKV
Видео кодек: H.264
Аудио кодек: AC3
Видео: x264, 1280 x 536 ( 2,40:1 ), 4461 kbps, 60,000 fps, ( 0.108 bpp)
Аудио#1: Русский, AC-3, 48.0 KHz, 6 ch, 384 Kbps КиноПоиск HD
Релиз от: Автор рипа: slaventi-69
x264 [info]: frame I:2412 Avg QP:16.11 size: 73697
x264 [info]: frame P:93010 Avg QP:16.92 size: 18627
x264 [info]: frame B:299749 Avg QP:19.15 size: 5879
x264 [info]: consecutive B-frames: 2.5% 2.2% 9.2% 12.3% 64.2% 9.7%


Общее
Уникальный идентификатор : 322610312004525971913890271657186975073 (0xF2B47C6C2F332BC3B573CF4F29BE5D61)
Полное имя : F:\60 FPS\Mortal.Kombat.(2021).WEB-DLRip.720p.(60 Fps).mkv
Формат : Matroska
Версия формата : Version 4
Размер файла : 3,72 Гбайт
Продолжительность : 1 ч. 49 м.
Общий поток : 4849 Кбит/сек
Название фильма : Мортал Комбат / Mortal Kombat (2021) WEB-DLRip 720p (60 Fps)
Дата кодирования : UTC 2021-05-12 13:55:36
Программа кодирования : mkvmerge v56.1.0 ('My Friend') 32-bit
Библиотека кодирования : libebml v1.4.2 + libmatroska v1.6.4

Видео
Идентификатор : 1
Формат : AVC
Формат/Информация : Advanced Video Codec
Профиль формата : High@L4.1
Настройки формата : CABAC / 9 Ref Frames
Параметр CABAC формата : Да
Параметр RefFrames формата : 9 кадров
Идентификатор кодека : V_MPEG4/ISO/AVC
Продолжительность : 1 ч. 49 м.
Битрейт : 4461 Кбит/сек
Ширина : 1280 пикселей
Высота : 536 пикселей
Соотношение сторон : 2,40:1
Режим частоты кадров : Постоянный
Частота кадров : 60,000 кадров/сек
Цветовое пространство : YUV
Субдискретизация насыщенности : 4:2:0
Битовая глубина : 8 бит
Тип развёртки : Прогрессивная
Бит/(Пиксели*Кадры) : 0.108
Размер потока : 3,42 Гбайт (92%)
Заголовок : slaventi-69 ( R.G. HD-Films | 60 fps )
Библиотека кодирования : x264 core 130 r2273 b3065e6
Настройки программы : cabac=1 / ref=10 / deblock=1:-2:-2 / analyse=0x3:0x133 / me=umh / subme=9 / psy=1 / psy_rd=1.00:0.00 / mixed_ref=1 / me_range=32 / chroma_me=1 / trellis=2 / 8x8dct=1 / cqm=0 / deadzone=21,11 / fast_pskip=0 / chroma_qp_offset=-2 / threads=10 / lookahead_threads=4 / sliced_threads=0 / nr=0 / decimate=1 / interlaced=0 / bluray_compat=0 / constrained_intra=0 / bframes=5 / b_pyramid=1 / b_adapt=2 / b_bias=0 / direct=2 / weightb=1 / open_gop=0 / weightp=2 / keyint=600 / keyint_min=23 / scenecut=40 / intra_refresh=0 / rc=crf / mbtree=0 / crf=16.8 / qcomp=0.60 / qpmin=0 / qpmax=69 / qpstep=4 / ip_ratio=1.40 / pb_ratio=1.30 / aq=1:1.00
Язык : English
Default : Да
Forced : Нет

Аудио
Идентификатор : 2
Формат : AC-3
Формат/Информация : Audio Coding 3
Коммерческое название : Dolby Digital
Идентификатор кодека : A_AC3
Продолжительность : 1 ч. 49 м.
Вид битрейта : Постоянный
Битрейт : 384 Кбит/сек
Каналы : 6 каналов
Channel layout : L R C LFE Ls Rs
Частота : 48,0 КГц
Частота кадров : 31,250 кадров/сек (1536 SPF)
Битовая глубина : 16 бит
Метод сжатия : С потерями
Размер потока : 301 Мбайт (8%)
Заголовок : Dub
Язык : Russian
ServiceKind/String : Complete Main
Default : Да
Forced : Нет

Текст #1
Идентификатор : 3
Формат : UTF-8
Идентификатор кодека : S_TEXT/UTF8
Идентификатор кодека/Информация : UTF-8 Plain Text
Продолжительность : 1 ч. 37 м.
Битрейт : 3 бит/сек
ElementCount : 56
Размер потока : 2,48 Кбайт (0%)
Заголовок : Forced
Язык : Russian
Default : Нет
Forced : Нет

Текст #2
Идентификатор : 4
Формат : UTF-8
Идентификатор кодека : S_TEXT/UTF8
Идентификатор кодека/Информация : UTF-8 Plain Text
Продолжительность : 1 ч. 37 м.
Битрейт : 63 бит/сек
ElementCount : 970
Размер потока : 45,5 Кбайт (0%)
Заголовок : Full
Язык : Russian
Default : Нет
Forced : Нет

Текст #3
Идентификатор : 5
Формат : UTF-8
Идентификатор кодека : S_TEXT/UTF8
Идентификатор кодека/Информация : UTF-8 Plain Text
Продолжительность : 1 ч. 37 м.
Битрейт : 57 бит/сек
ElementCount : 982
Размер потока : 41,3 Кбайт (0%)
Заголовок : Full [MENINSUB]
Язык : Russian
Default : Нет
Forced : Нет

Текст #4
Идентификатор : 6
Формат : UTF-8
Идентификатор кодека : S_TEXT/UTF8
Идентификатор кодека/Информация : UTF-8 Plain Text
Продолжительность : 1 ч. 41 м.
Битрейт : 44 бит/сек
ElementCount : 1352
Размер потока : 32,6 Кбайт (0%)
Заголовок : SDH
Язык : English
Default : Нет
Forced : Нет

Меню
00:00:00.000 : Studio Logo
00:00:45.000 : Scene 2
00:04:48.000 : Scene 3
00:07:25.000 : Scene 4
00:10:11.000 : Scene 5
00:12:38.000 : Title Sequence
00:12:54.000 : Prologue
00:13:10.000 : Scene 8
00:15:54.000 : Scene 9
00:16:57.000 : Scene 10
00:19:13.000 : Scene 11
00:23:08.000 : Scene 12
00:25:22.000 : Scene 13
00:26:22.000 : Scene 14
00:27:24.000 : Scene 15
00:32:05.000 : Scene 16
00:34:39.000 : Scene 17
00:37:38.000 : Scene 18
00:38:55.000 : Scene 19
00:43:10.000 : Scene 20
00:46:10.000 : Scene 21
00:47:45.000 : Scene 22
00:51:11.000 : Scene 23
00:55:02.000 : Scene 24
00:57:51.000 : Scene 25
01:01:13.000 : Scene 26
01:03:19.000 : Scene 27
01:04:00.000 : Scene 28
01:05:48.000 : Scene 29
01:07:17.000 : Scene 30
01:13:05.000 : Scene 31
01:16:36.000 : Scene 32
01:19:23.000 : Scene 33
01:21:23.000 : Scene 34
01:25:21.000 : Scene 35
01:27:17.000 : Scene 36
01:28:10.000 : Scene 37
01:31:56.000 : Scene 38
01:35:35.000 : Scene 39
01:38:14.000 : Scene 40
01:38:59.000 : End Credits

Просьба к переливающим на другие сайты, в оформлении указывайте пожалуйста авторство группы R.G. HD-Films pb.wtf



Скачать Мортал Комбат через торрент https://i114.fastpic.ru/big/2021/0424/92/4bd938cf4fe19decde1f714487ff4092.jpg Скачать, смотреть онлайн Мортал Комбат бесплантно в хорошем качестве Описание: Боец смешанных единоборств Коул Янг не раз соглашался проиграть за деньги. Он не знает о своем наследии и почему император ... 9.5 10 19
Info! Золотая раздача, скачанное не засчитывается.
Торрент: Зарегистрирован [2021-05-12 14:25] · скачан: 468 раз
Статус: √ проверено
Размер: 3.72 GB
Как cкачать? Как скачать Мортал Комбат через торрент | UTorrent

28-11-2019 20:33  

Отключить всю рекламу на сайте

12-05-2021 15:08 Мортал Комбат Скачать торрент  

Спсpb.wtf



12-05-2021 15:44 Мортал Комбат Скачать торрент  

какой то блин зашквар а не мортал комбат, оригинал в разы достойней снят, чем это.....pb.wtf



12-05-2021 16:40 Мортал Комбат Скачать торрент  

Эт точно, гораздо лучше и приятнее пересмотреть оригинал. Тут почти ничего общего с фильмом. Как тренировочный фильм начинающего режиссера. Даже спецэффекты не впечатлили... Одно расстройство.pb.wtf



12-05-2021 22:19 Мортал Комбат Скачать торрент  

бои оригинального мортальника можно пересматривать вечно, а здесь зацепиться даже не за что, вроде и битвы более длинные и заковыристые порою, но реал пересматривать их нет никакого желания(. Полный шлак. Ну берешься за такой легендарный кинец, ну так правильно оценивай свои силы..... Кстати Пол Андерсон тогда тоже был начинающим))).pb.wtf



13-05-2021 14:24 Мортал Комбат Скачать торрент  

даже фильмы вошли в оптимизацию.смотреть больше не чего.всё дерьмо.pb.wtf



14-05-2021 10:46 Мортал Комбат Скачать торрент  

лютый шлакpb.wtf



16-05-2021 22:54 Мортал Комбат Скачать торрент  

Спс pb.wtf



17-05-2021 02:57 Мортал Комбат Скачать торрент  

Кун Лао так тупо слили суки pb.wtf



10-06-2021 09:02 Мортал Комбат Скачать торрент  

Что я только что посмотрел? Это лютый шлак! Бой Скорпа с Ниже нуля можно смотреть и его ждёшь больше часа. Костюмы даже ни на долю не похожи и не имеют ничего общего с оригиналом. Скорее закос на игру МК11. Где саундтрек - фишка ради которой и ждали фильм?! Актеры никчемные, играть не умеют. Все бои я смотрел не на крутые драки, а на кубики и глюки при монтаже. И ещё после боя скорпа и ниже нуля, когда победители уходили, на полу была ткань, а должен был быть типа лёд. На столько дешево и беспонтово всё сделано. Это не кино, это пример того, как не должно выглядеть возвращение легендарного фильма.pb.wtf



    Дорогой пользователь! Огромная просьба, поблагодарите релизера, оцените раздачу и оставьте свои комментарий, если Вы скачали Мортал Комбат через торрент бесплатно!
    Комментировать посты могут только пользователи прошедшие не сложную регистрацию
    Показать сообщения:    

    Мортал Комбат через торрент
    Скачать бесплатно Мортал Комбат
    Мортал Комбат скачать торрент
    Мортал Комбат смотреть онлайн
    Cкачать фильм Мортал Комбат бесплатно
    Мортал Комбат скачать торрент в хорошем качестве
    Мортал Комбат смотреть онлайн бесплатно в хорошем качестве


    Вы не можете начинать темы
    Вы не можете отвечать на сообщения
    Вы не можете редактировать свои сообщения
    Вы не можете удалять свои сообщения
    Вы не можете голосовать в опросах
    Вы не можете прикреплять файлы к сообщениям
    Вы можете скачивать файлы