Присоединяйтесь к нам в Telegram!, здесь всегда актуальный адрес сайта, оперативная поддержка и многое другое!!

>

5.9

iTunes

7.4

iTunes

9.4

1 сезон

1

7.4

2 сезон

7.2

iTunes

7.3

1 сезон

13

6.1

iTunes

8.3

GOG

30

ULTIMATE

pack

9.9

Лицензия

ВАЖНО

ИГРА 18+

pack

7.3

RePack

MK11

7.7

RePack

jed

7.8

RePack

fifa19

8.5

RePack

RDR2

RePack

NEED FOR SPEED™ PAYBACK

5 сезон

9 сезон

Бесстыжие 9 сезон

Все сериалы

все сериалы на PB.wtf

RePack

FAR CRY 5

Anonymous, добрый вечер, мы катастрофически не успеваем собрать деньги на оплату серверов, помогите нам пожалуйста 5,10,15р., для нас важна любая помощь . В качестве благодарности мы отключим Вам всю рекламу на сайте (укажите свой ник в строку Ваше имя)!

×
  
Magnet ссылка

В пасти океана / Great White (Мартин Уилсон) [2021, ужасы, WEB-DLRip-AVC] DUB от MediaBit pb.wtf

В пасти океана через торрент pb.wtf

Раздают: 8 [ 0 KB/s ]
Размер: 1.43 GB | Добавлен: 6 мес. назад | Торрент скачан:124 раза
Смотреть онлайн В пасти океана | Скачать    Ребята, помогите собрать деньги на оплату серверов!!!

12-05-2021 17:03 В пасти океана Скачать торрент  


В пасти океана / Great White
Информация о фильме:
Название: В пасти океана
Оригинальное название: Great White
Год выхода: 2021
Жанр: Ужасы
Режиссер: Мартин Уилсон
В ролях: Катрина Боуден, Те Кохе Тухака, Аарон Якубенко, Кимиэ Цукакоси, Алексис Марьянович, Тим Кано, Джейсон Уайлдер, Патрик Этчисон

Описание: В погоне за яркими впечатлениями и эффектным отпуском компания друзей и их девушек отправляется на безлюдный коралловый остров. Но предвкушаемое блаженство оборачивается борьбой за жизнь, когда их самолет терпит крушение посреди океана. Спасательную шлюпку быстро обнаруживают белые акулы, которые намерены во что бы то ни стало утащить неожиданный деликатес на дно.



Страна: Австралия, США
Студия: Thrills & Spills, Altitude Media Group, Cornerstone Pictures
Продолжительность: 01:27:18
Перевод: Дублированное



Информация о файле:
Кодек: AVC
Формат: MKV
Качество: WEB-DLRip-AVC
Видео: MPEG-4 AVC, 1024x428, 25.000 fps, 2151 kbps
Аудио RU: AC3, 2 ch, 48 kHz, 192 kbps
Субтитры: Нет
Навигация по главам: Да

x264 info: frame I:854 Avg QP:14.68 size: 49615
x264 info: frame P:35438 Avg QP:18.04 size: 19189
x264 info: frame B:94680 Avg QP:20.93 size: 7239
General
Unique ID : 30906533824235883143993192438406640826 (0x174061C3FF4E4E89D3800744E290F4BA)
Complete name : D:uTorrentРипы_от_wolf1245_MediaBitGreat.White.2021.DUB.WEB-DLRip-AVC.[wolf1245.MediaBit].mkv
Format : Matroska
Format version : Version 4
File size : 1.43 GiB
Duration : 1 h 27 min
Overall bit rate : 2 344 kb/s
Movie name : Great.White.2021.DUB.WEB-DLRip-AVC.[wolf1245.MediaBit]
Encoded date : UTC 2021-05-12 16:47:40
Writing application : mkvmerge v56.1.0 ('My Friend') 64-bit
Writing library : libebml v1.4.2 + libmatroska v1.6.4
Video
ID : 1
Format : AVC
Format/Info : Advanced Video Codec
Format profile : High@L4.1
Format settings : CABAC / 14 Ref Frames
Format settings, CABAC : Yes
Format settings, Reference frames : 14 frames
Codec ID : V_MPEG4/ISO/AVC
Duration : 1 h 27 min
Bit rate : 2 151 kb/s
Width : 1 024 pixels
Height : 428 pixels
Display aspect ratio : 2.40:1
Frame rate mode : Constant
Frame rate : 25.000 FPS
Color space : YUV
Chroma subsampling : 4:2:0
Bit depth : 8 bits
Scan type : Progressive
Bits/(Pixel*Frame) : 0.196
Stream size : 1.31 GiB (92%)
Title : .[wolf1245.MediaBit]
Writing library : x264 core 157 r2958 57baac4
Encoding settings : cabac=1 / ref=14 / deblock=1:0:0 / analyse=0x3:0x133 / me=umh / subme=10 / psy=1 / psy_rd=0.97:0.00 / mixed_ref=1 / me_range=32 / chroma_me=1 / trellis=2 / 8x8dct=1 / cqm=0 / deadzone=21,11 / fast_pskip=1 / chroma_qp_offset=-2 / threads=10 / lookahead_threads=2 / sliced_threads=0 / nr=0 / decimate=1 / interlaced=0 / bluray_compat=0 / constrained_intra=0 / bframes=12 / b_pyramid=2 / b_adapt=2 / b_bias=0 / direct=3 / weightb=1 / open_gop=0 / weightp=2 / keyint=250 / keyint_min=25 / scenecut=40 / intra_refresh=0 / rc_lookahead=40 / rc=2pass / mbtree=1 / bitrate=2151 / ratetol=1.0 / qcomp=0.60 / qpmin=0 / qpmax=69 / qpstep=4 / cplxblur=20.0 / qblur=0.5 / vbv_maxrate=50000 / vbv_bufsize=62500 / nal_hrd=none / filler=0 / ip_ratio=1.40 / aq=1:0.80
Language : English
Default : Yes
Forced : No
Color range : Limited
Color primaries : BT.709
Transfer characteristics : BT.709
Matrix coefficients : BT.709
Audio
ID : 2
Format : AC-3
Format/Info : Audio Coding 3
Commercial name : Dolby Digital
Codec ID : A_AC3
Duration : 1 h 27 min
Bit rate mode : Constant
Bit rate : 192 kb/s
Channel(s) : 2 channels
Channel layout : L R
Sampling rate : 48.0 kHz
Frame rate : 31.250 FPS (1536 SPF)
Bit depth : 16 bits
Compression mode : Lossy
Stream size : 120 MiB (8%)
Title : DUB
Language : Russian
Service kind : Complete Main
Default : Yes
Forced : No
Menu
00:00:00.000 : :Глава 1
00:08:14.400 : :Глава 2
00:16:28.040 : :Глава 3
00:24:32.120 : :Глава 4
00:32:54.640 : :Глава 5
00:41:03.640 : :Глава 6
00:49:05.840 : :Глава 7
00:57:36.360 : :Глава 8
01:05:52.440 : :Глава 9
01:14:08.760 : :Глава 10
Релиз от: &
Автор релиза:
pb.wtf



Скачать В пасти океана через торрент https://i114.fastpic.ru/big/2021/0512/22/b7829250de7ad3873aeb0e1cbe239822.png Скачать, смотреть онлайн В пасти океана бесплантно в хорошем качестве Описание: В погоне за яркими впечатлениями и эффектным отпуском компания друзей и их девушек отправляется на безлюдный коралловый остров. ... 8.4 10 7
Торрент: Зарегистрирован [2021-05-12 17:03] · скачан: 124 раз
Статус: √ проверено
Размер: 1.43 GB
Как cкачать? Как скачать В пасти океана через торрент | UTorrent

28-11-2019 20:33  

Отключить всю рекламу на сайте

12-05-2021 23:54 В пасти океана Скачать торрент  

Шляпа?pb.wtf



    Дорогой пользователь! Огромная просьба, поблагодарите релизера, оцените раздачу и оставьте свои комментарий, если Вы скачали В пасти океана через торрент бесплатно!
    Комментировать посты могут только пользователи прошедшие не сложную регистрацию
    Показать сообщения:    

    В пасти океана через торрент
    Скачать бесплатно В пасти океана
    В пасти океана скачать торрент
    В пасти океана смотреть онлайн
    Cкачать фильм В пасти океана бесплатно
    В пасти океана скачать торрент в хорошем качестве
    В пасти океана смотреть онлайн бесплатно в хорошем качестве


    Вы не можете начинать темы
    Вы не можете отвечать на сообщения
    Вы не можете редактировать свои сообщения
    Вы не можете удалять свои сообщения
    Вы не можете голосовать в опросах
    Вы не можете прикреплять файлы к сообщениям
    Вы можете скачивать файлы