Присоединяйтесь к нам в Telegram!, здесь всегда актуальный адрес сайта, оперативная поддержка и многое другое!!

>

5.9

iTunes

7.4

iTunes

9.4

1 сезон

1

7.4

2 сезон

7.2

iTunes

7.3

1 сезон

13

6.1

iTunes

8.3

Пиратка

30

ULTIMATE

pack

9.9

Лицензия

ВАЖНО

ИГРА 18+

pack

7.3

RePack

MK11

7.7

RePack

jed

7.8

RePack

fifa19

8.5

RePack

RDR2

RePack

NEED FOR SPEED™ PAYBACK

5 сезон

9 сезон

Бесстыжие 9 сезон

Все сериалы

все сериалы на PB.wtf

RePack

FAR CRY 5

Anonymous, доброй ночи, мы катастрофически не успеваем собрать деньги на оплату серверов, помогите нам пожалуйста 5,10,15р., для нас важна любая помощь . В качестве благодарности мы отключим Вам всю рекламу на сайте (укажите свой ник в строку Ваше имя)!

×
  
Magnet ссылка

Кислород / Oxygène (Александр Ажа) [2021, Фантастика, фэнтези, триллер, драма, WEB-DLRip-AVC] DUB [Пифагор / Netflix] pb.wtf

Кислород через торрент pb.wtf

Раздают: 5 [ 0 KB/s ]
Размер: 2.18 GB | Добавлен: 6 мес. назад | Торрент скачан:608 раз
Смотреть онлайн Кислород | Скачать    Ребята, помогите собрать деньги на оплату серверов!!!

13-05-2021 18:34 Кислород Скачать торрент  

Кислород | Oxygène
Год выпуска: 2021
Страна: Франция, США
Студия: Echo Lake Entertainment, Getaway Films, Wild Bunch International
Жанр: Фантастика, фэнтези, триллер, драма
Продолжительность: 01:41:54
Перевод: Дублированный | Пифагор по заказу Netflix
Субтитры: Русские (форс., полные), английские

Режиссер: Александр Ажа

rating

В ролях: Мелани Лоран, Матьё Амальрик, Малик Зиди, Марк Саез, Эрик Эрсон-Макарель, Кати Серда, Паскаль Жермен, Лаура Бужена, Мари Лемиаль, Лиа Валад

Описание: Новый фильм от режиссера «Капкана» и «У холмов есть глаза» расскажет историю молодой женщины, которая пробуждается в медицинской криокапсуле. Она не помнит, как именно оказалась запертой в коробке по вместительности не больше обычного гроба. А ещё быстро заканчивается живительный кислород, поэтому необходимо вернуть память, чтобы покончить с этим кошмаром.

Качество: WEB-DLRip-AVC
Формат: MKV

Видео: 1024x428 (2.40:1), 24,000 fps, x264 ~2 610 kbps avg, 0.248 bit/pixel
Аудио: 48 kHz, AC3 Dolby Digital, 3/2 (L,C,R,l,r) + LFE ch, ~448.00 kbps avg | RUS (Netflix)
скриншот  скриншот  скриншот  скриншот  скриншот  

General
Unique ID : 20526856551843055363743548119534001485 (0xF71542A40D5AB030836DBFEF467DD4D)
Complete name : D:OlLanDGroupOxygene.2021.WEB-DLRip(AVC).OlLanDGroup.mkv
Format : Matroska
Format version : Version 4
File size : 2.18 GiB
Duration : 1 h 41 min
Overall bit rate : 3 058 kb/s
Movie name : Oxygene 2021 #TorpedoUK#
Encoded date : UTC 2021-05-13 08:26:08
Writing application : mkvmerge v56.0.0 ('Strasbourg / St. Denis') 64-bit
Writing library : libebml v1.4.2 + libmatroska v1.6.4

Video
ID : 1
Format : AVC
Format/Info : Advanced Video Codec
Format profile : High@L4.1
Format settings : CABAC / 10 Ref Frames
Format settings, CABAC : Yes
Format settings, Reference frames : 10 frames
Codec ID : V_MPEG4/ISO/AVC
Duration : 1 h 41 min
Bit rate : 2 610 kb/s
Width : 1 024 pixels
Height : 428 pixels
Display aspect ratio : 2.40:1
Frame rate mode : Constant
Frame rate : 24.000 FPS
Color space : YUV
Chroma subsampling : 4:2:0
Bit depth : 8 bits
Scan type : Progressive
Bits/(Pixel*Frame) : 0.248
Stream size : 1.86 GiB (85%)
Writing library : x264 core 146 r2538 121396c
Encoding settings : cabac=1 / ref=10 / deblock=1:-3:-3 / analyse=0x3:0x113 / me=umh / subme=10 / psy=1 / psy_rd=0.97:0.05 / mixed_ref=1 / me_range=48 / chroma_me=1 / trellis=2 / 8x8dct=1 / cqm=0 / deadzone=21,11 / fast_pskip=1 / chroma_qp_offset=-6 / threads=6 / lookahead_threads=1 / sliced_threads=0 / nr=0 / decimate=1 / interlaced=0 / bluray_compat=0 / constrained_intra=0 / bframes=11 / b_pyramid=2 / b_adapt=2 / b_bias=0 / direct=3 / weightb=1 / open_gop=0 / weightp=2 / keyint=240 / keyint_min=24 / scenecut=40 / intra_refresh=0 / rc_lookahead=40 / rc=2pass / mbtree=0 / bitrate=2610 / ratetol=1.0 / qcomp=0.60 / qpmin=0 / qpmax=69 / qpstep=4 / cplxblur=20.0 / qblur=0.5 / vbv_maxrate=50000 / vbv_bufsize=62500 / nal_hrd=none / filler=0 / ip_ratio=1.40 / pb_ratio=1.30 / aq=1:1.00
Default : Yes
Forced : No

Audio
ID : 2
Format : AC-3
Format/Info : Audio Coding 3
Commercial name : Dolby Digital
Codec ID : A_AC3
Duration : 1 h 41 min
Bit rate mode : Constant
Bit rate : 448 kb/s
Channel(s) : 6 channels
Channel layout : L R C LFE Ls Rs
Sampling rate : 48.0 kHz
Frame rate : 31.250 FPS (1536 SPF)
Compression mode : Lossy
Stream size : 327 MiB (15%)
Title : DUB [Netflix]
Language : Russian
Service kind : Complete Main
Default : Yes
Forced : No

Text #1
ID : 3
Format : UTF-8
Codec ID : S_TEXT/UTF8
Codec ID/Info : UTF-8 Plain Text
Duration : 1 h 40 min
Bit rate : 1 b/s
Count of elements : 32
Stream size : 1.09 KiB (0%)
Title : Forced
Language : Russian
Default : Yes
Forced : Yes

Text #2
ID : 4
Format : UTF-8
Codec ID : S_TEXT/UTF8
Codec ID/Info : UTF-8 Plain Text
Duration : 1 h 40 min
Bit rate : 82 b/s
Count of elements : 1119
Stream size : 60.8 KiB (0%)
Title : Full
Language : Russian
Default : No
Forced : No

pb.wtf



Скачать Кислород через торрент https://i114.fastpic.ru/big/2021/0512/10/88630cf08fc4b302027f400ecbc03610.jpg Скачать, смотреть онлайн Кислород бесплантно в хорошем качестве Описание: Новый фильм от режиссера «Капкана» и «У холмов есть глаза» расскажет историю молодой женщины, которая пробуждается в медицинской ... 10 10 13
Info! Золотая раздача, скачанное не засчитывается.
Торрент: Зарегистрирован [2021-05-13 18:34] · скачан: 608 раз
Статус: √ проверено
Размер: 2.18 GB
Как cкачать? Как скачать Кислород через торрент | UTorrent

% Раздел Тема Автор DL S | L
Фильмы (WEB-DL 720p, 1080p) [ 3.69 GB ] Кислород / Oxygene [2021 WEB-DL 1080p] killermax2013 Скачать
3 | 0
Фильмы (WEB-DL 720p, 1080p) [ 5.65 GB ] Кислород / Oxygène [2021 WEB-DL 720p] DUB [Пифагор / Netflix] bober100 Скачать
2 | 0
Фильмы 2021 [DVDrip, WEB-DLRip, HDrip] (DUB, MVO) [ 1.46 GB ] Кислород / Oxygene [2021 WEB-DLRip] - [ / Netflix] Twi7ter Скачать
28 | 0

28-11-2019 20:33  

Отключить всю рекламу на сайте

16-05-2021 13:41 Кислород Скачать торрент  

Кто нибудь смотрел, как фильмpb.wtf



21-05-2021 14:38 Кислород Скачать торрент  

sensey7777 писал(а):

Кто нибудь смотрел, как фильм

Фильм супер. Давно таких не было. Чем-то напоминает "Погребённый заживо" с Рейнольдсом, только смещение в фантастику и идея немного другая.pb.wtf



    Дорогой пользователь! Огромная просьба, поблагодарите релизера, оцените раздачу и оставьте свои комментарий, если Вы скачали Кислород через торрент бесплатно!
    Комментировать посты могут только пользователи прошедшие не сложную регистрацию
    Показать сообщения:    

    Кислород через торрент
    Скачать бесплатно Кислород
    Кислород скачать торрент
    Кислород смотреть онлайн
    Cкачать фильм Кислород бесплатно
    Кислород скачать торрент в хорошем качестве
    Кислород смотреть онлайн бесплатно в хорошем качестве


    Вы не можете начинать темы
    Вы не можете отвечать на сообщения
    Вы не можете редактировать свои сообщения
    Вы не можете удалять свои сообщения
    Вы не можете голосовать в опросах
    Вы не можете прикреплять файлы к сообщениям
    Вы можете скачивать файлы