Присоединяйтесь к нам в Telegram!, здесь всегда актуальный адрес сайта, оперативная поддержка и многое другое!!

>

5.9

iTunes

7.4

iTunes

9.4

1 сезон

1

7.4

2 сезон

7.2

iTunes

7.3

1 сезон

13

6.1

iTunes

8.3

GOG

30

ULTIMATE

pack

9.9

Лицензия

ВАЖНО

ИГРА 18+

pack

7.3

RePack

MK11

7.7

RePack

jed

7.8

RePack

fifa19

8.5

RePack

RDR2

RePack

NEED FOR SPEED™ PAYBACK

5 сезон

9 сезон

Бесстыжие 9 сезон

Все сериалы

все сериалы на PB.wtf

RePack

FAR CRY 5

Anonymous, доброй ночи, мы катастрофически не успеваем собрать деньги на оплату серверов, помогите нам пожалуйста 5,10,15р., для нас важна любая помощь . В качестве благодарности мы отключим Вам всю рекламу на сайте (укажите свой ник в строку Ваше имя)!

×
  
Magnet ссылка

Женщина в окне / The Woman in the Window (Джо Райт) [2021, Триллер, криминал, детектив, WEB-DLRip-AVC] [DUB] (Netflix) pb.wtf

Женщина в окне через торрент pb.wtf

Раздают: 2 [ 0 KB/s ]
Размер: 742 MB | Добавлен: 6 мес. назад | Торрент скачан:107 раз
Смотреть онлайн Женщина в окне | Скачать    Ребята, помогите собрать деньги на оплату серверов!!!

14-05-2021 18:08 Женщина в окне Скачать торрент  

Женщина в окне / The Woman in the Window Год выхода: 2021
Жанр: Триллер, криминал, детектив
Страна: США
Студия: 20th Century Studios, Fox 2000 Pictures, Scott Rudin Productions
Продолжительность: 01:41:54
Перевод: Дублированный | Netflix

Режиссер: Джо Райт

В ролях: Эми Адамс, Донат Балай, Энтони Маки, Фред Хехингер, Уайатт Рассел, Гари Олдман, Брайан Тайри Генри, Джулианна Мур, Джанин Серраллес

О фильме: Анна Фокс работала детским психологом, но однажды стала частью кошмарной трагедии, после которой перестала выходить из дома. Вот уже много лет она практически не видит людей и даже с родителями общается лишь по телефону. Её будни состоять из бокалов вина за просмотром старых фильмов, общением в сети и наблюдением за соседями из окна квартиры. Из-за последнего она становится свидетельницей преступления в окне напротив, вот только полиция не верит её показаниям. Поэтому женщина решает докопаться до правды самостоятельно.


rating

Качество: WEB-DLRip-AVC
Формат: MKV
Видео: 720x302 at 23.976 fps, x264@L4.1, ~941 kbps, 0.180 bpp
Аудио: 48 kHz, AAC, 2 Ch, 80 Kbps | Netflix | RUS
Субтитры: Русские (Forced, full), английские
скриншот  скриншот  скриншот  
General
Format : Matroska
Format version : Version 4
File size : 742 MiB
Duration : 1 h 41 min
Overall bit rate : 1 018 kb/s
Movie name : Женщина в окне.(2021).WEB-DLRip-AVC.[-=DoMiNo=-]
Encoded date : UTC 2021-05-14 11:07:44
Writing application : mkvmerge v56.1.0 ('My Friend') 64-bit
Writing library : libebml v1.4.2 + libmatroska v1.6.4
Cover : Yes
Attachments : Cover.jpg / Cover 2.jpg

Video
ID : 1
Format : AVC
Format/Info : Advanced Video Codec
Format profile : High@L4.1
Format settings : CABAC / 12 Ref Frames
Format settings, CABAC : Yes
Format settings, Reference : 12 frames
Codec ID : V_MPEG4/ISO/AVC
Duration : 1 h 41 min
Bit rate : 941 kb/s
Width : 720 pixels
Height : 302 pixels
Display aspect ratio : 2.40:1
Frame rate mode : Constant
Frame rate : 23.976 (24000/1001) FPS
Color space : YUV
Chroma subsampling : 4:2:0
Bit depth : 8 bits
Scan type : Progressive
Bits/(Pixel*Frame) : 0.180
Stream size : 682 MiB (92%)
Title : -=DoMiNo=-
Writing library : x264 core 152 r2851 ba24899
Encoding settings : cabac=1 / ref=12 / deblock=1:-2:-2 / analyse=0x3:0x133 / me=umh / subme=10 / psy=1 / psy_rd=1.05:0.05 / mixed_ref=1 / me_range=32 / chroma_me=1 / trellis=2 / 8x8dct=1 / cqm=0 / deadzone=21,11 / fast_pskip=0 / chroma_qp_offset=-3 / threads=6 / lookahead_threads=1 / sliced_threads=0 / nr=0 / decimate=0 / interlaced=0 / bluray_compat=0 / constrained_intra=0 / bframes=10 / b_pyramid=2 / b_adapt=2 / b_bias=0 / direct=3 / weightb=1 / open_gop=0 / weightp=2 / keyint=250 / keyint_min=23 / scenecut=40 / intra_refresh=0 / rc_lookahead=60 / rc=2pass / mbtree=0 / bitrate=941 / ratetol=1.0 / qcomp=0.60 / qpmin=0 / qpmax=69 / qpstep=4 / cplxblur=20.0 / qblur=0.5 / vbv_maxrate=50000 / vbv_bufsize=62500 / nal_hrd=none / filler=0 / ip_ratio=1.10 / pb_ratio=1.30 / aq=3:1.00
Language : English
Default : Yes
Forced : No
Color range : Limited
Color primaries : BT.709
Transfer characteristics : BT.709
Matrix coefficients : BT.709

Audio
ID : 2
Format : AAC LC SBR
Format/Info : Advanced Audio Codec Low Complexity with Spectral Band Replication
Commercial name : HE-AAC
Format settings : Implicit
Codec ID : A_AAC-2
Duration : 1 h 41 min
Bit rate : 80.0 kb/s
Channel(s) : 2 channels
Channel layout : L R
Sampling rate : 48.0 kHz
Frame rate : 23.438 FPS (2048 SPF)
Compression mode : Lossy
Stream size : 58.3 MiB (8%)
Title : DUB
Language : Russian
Default : Yes
Forced : Yes

Text #1
ID : 3
Format : UTF-8
Codec ID : S_TEXT/UTF8
Codec ID/Info : UTF-8 Plain Text
Duration : 1 h 39 min
Bit rate : 1 b/s
Count of elements : 26
Stream size : 882 Bytes (0%)
Title : forced
Language : Russian
Default : Yes
Forced : Yes

Text #2
ID : 4
Format : UTF-8
Codec ID : S_TEXT/UTF8
Codec ID/Info : UTF-8 Plain Text
Duration : 1 h 39 min
Bit rate : 68 b/s
Count of elements : 1078
Stream size : 49.8 KiB (0%)
Language : Russian
Default : No
Forced : No

Text #3
ID : 5
Format : UTF-8
Codec ID : S_TEXT/UTF8
Codec ID/Info : UTF-8 Plain Text
Duration : 1 h 35 min
Bit rate : 86 b/s
Count of elements : 1547
Stream size : 60.5 KiB (0%)
Language : English
Default : No
Forced : No

Menu
00:00:00.000 : en:Глава 01
00:07:55.000 : en:Глава 02
00:15:50.000 : en:Глава 03
00:23:45.000 : en:Глава 04
00:31:40.000 : en:Глава 05
00:39:35.000 : en:Глава 06
00:47:30.000 : en:Глава 07
00:55:25.000 : en:Глава 08
01:03:20.000 : en:Глава 09
01:11:15.000 : en:Глава 10
01:19:10.000 : en:Глава 11
01:27:05.000 : en:Глава 12
01:35:00.000 : en:Глава 13
pb.wtf



Скачать Женщина в окне через торрент https://b.radikal.ru/b13/2105/b0/750669d87a7b.jpg Скачать, смотреть онлайн Женщина в окне бесплантно в хорошем качестве О фильме: Анна Фокс работала детским психологом, но однажды стала частью кошмарной трагедии, после которой перестала выходить из дома. Вот ... 10 10 1
Торрент: Зарегистрирован [2021-05-14 18:08] · скачан: 107 раз
Статус: √ проверено
Размер: 742 MB
Как cкачать? Как скачать Женщина в окне через торрент | UTorrent

% Раздел Тема Автор DL S | L
Фильмы 2021 [DVDrip, WEB-DLRip, HDrip] (DUB, MVO) [ 1.46 GB ] Женщина в окне / The Woman in the Window [2021 WEB-DLRip] - [Невафильм / Netflix] Twi7ter Скачать
23 | 1
Фильмы (WEB-DL 720p, 1080p) [ 9.74 GB ] Женщина в окне / The Woman in the Window [2021 WEBRip 1080p] DUB [Невафильм / Netflix] bober100 Скачать
1 | 0
Фильмы 2021 [DVDrip, WEB-DLRip, HDrip] (DUB, MVO) [ 1.45 GB ] Женщина в окне / The Woman in the Window [2021 WEB-DLRip] DUB [Невафильм / Netflix] bober100 Скачать
2 | 0
Фильмы 2021 [DVDrip, WEB-DLRip, HDrip] (DUB, MVO) [ 1.45 GB ] Женщина в окне / The Woman in the Window [2021 WEB-DLRip-AVC] от MediaBit Lithuania Скачать
2 | 0
Фильмы (WEB-DL 720p, 1080p) [ 1.61 GB ] Женщина в окне / The Woman in the Window [2021 WEB-DLRip 1080p] killermax2013 Скачать
2 | 0
Фильмы (WEB-DL 720p, 1080p) [ 3.79 GB ] Женщина в окне / The Woman in the Window [2021 WEB-DL 1080p] killermax2013 Скачать
7 | 0
Фильмы [HD 720p, 1080p] (Хороший звук DUB, MVO) [ 5.77 GB ] Женщина в окне / The Woman in the Window [1944 нуар BDRip 720p от еnvy / NNNB] | DVO AVO еnvy Скачать
5 | 0

28-11-2019 20:33  

Отключить всю рекламу на сайте

    Дорогой пользователь! Огромная просьба, поблагодарите релизера, оцените раздачу и оставьте свои комментарий, если Вы скачали Женщина в окне через торрент бесплатно!
    Комментировать посты могут только пользователи прошедшие не сложную регистрацию
    Показать сообщения:    

    Женщина в окне через торрент
    Скачать бесплатно Женщина в окне
    Женщина в окне скачать торрент
    Женщина в окне смотреть онлайн
    Cкачать фильм Женщина в окне бесплатно
    Женщина в окне скачать торрент в хорошем качестве
    Женщина в окне смотреть онлайн бесплатно в хорошем качестве


    Вы не можете начинать темы
    Вы не можете отвечать на сообщения
    Вы не можете редактировать свои сообщения
    Вы не можете удалять свои сообщения
    Вы не можете голосовать в опросах
    Вы не можете прикреплять файлы к сообщениям
    Вы можете скачивать файлы