Достать ножи: Стеклянная луковица

MVO

Добыча

Дубляж

Уэнсдэй

1 сезон

Тор

Дубляж

13 клиническая

1 сезон

Жестокая ночь

MVO

Одни из нас

1 сезон

Deluxe

pack

Рекомендуем

30

Пиратка

ВАЖНО

ВАЖНО

Ghostwire

Пиратка

jed

RePack

nioh2

RePack

RDR2

RePack

NEED FOR SPEED™ PAYBACK

RePack

скачать торрент

Кинопоиск HD

Острые козырьки 6 сезон

6 сезон

FAR CRY 6

RePack

скачать торрент

Лицензия

скачать торрент

MVO

1

1 сезон

скачать торрент

1 сезон

скачать торрент

Лицензия

  

Женщина в окне / The Woman in the Window (Джо Райт) [2021, Триллер, криминал, детектив, WEB-DLRip-AVC] Дубляж [iTunes] от MediaBit

Женщина в окне через торрент pb.wtf

Размер: 1.45 GB | Добавлен: 1 год 8 мес. назад | Торрент скачан:104 раза
Смотреть онлайн | Скачать | Поддержите нас   

15-05-2021 11:48 Женщина в окне Скачать торрент  


Женщина в окне / The Woman in the Window
Информация Описание:
Название: Женщина в окне
Оригинальное название: The Woman in the Window
Год выхода: 2021
Жанр: Триллер, криминал, детектив
Режиссер: Джо Райт
В ролях: Эми Адамс, Донат Балай, Энтони Маки, Фред Хехингер, Уайатт Расселл, Гэри Олдман, Брайан Тайри Генри, Джулианна Мур, Джанин Серраллес

Описание: Анна Фокс работала детским психологом, но однажды стала частью кошмарной трагедии, после которой перестала выходить из дома. Вот уже много лет она практически не видит людей и даже с родителями общается лишь по телефону. Её будни состоят из бокалов вина за просмотром старых фильмов, общением в сети и наблюдением за соседями из окна квартиры. Из-за последнего она становится свидетельницей преступления в окне напротив, вот только полиция не верит её показаниям. Поэтому женщина решает докопаться до правды самостоятельно.



Страна: США
Студия: 20th Century Studios, Fox 2000 Pictures, Scott Rudin Productions
Продолжительность: 01:41:54
Перевод: Дублированный - Netflix

Информация о файле:
Кодек: AVC
Формат: MKV
Качество: WEB-DLRip-AVC
Видео: MPEG-4 AVC, 1024x428, 23.976 fps, 1590 kb/s
Аудио RU: AC3, 6 ch, 48 kHz, 448 kbps
Субтитры: Русские (Forced, full), украинские (forced, full), английские
Навигация по главам: Нет

семпл
x264 info: frame I:1121 Avg QP:10.12 size: 70589
x264 info: frame P:29320 Avg QP:14.04 size: 18715
x264 info: frame B:116166 Avg QP:17.84 size: 5049

General
Unique ID : 300717617242737329985875439775492576305 (0xE23C1B3C106E61BF95667966A4DF9431)
Complete name : D:\uTorrent\Рипы_от_wolf1245_MediaBit\The.Woman.in.the.Window.2021.Дубляж.Netflix.WEB-DLRip-AVC.[wolf1245.MediaBit].mkv
Format : Matroska
Format version : Version 4
File size : 1.45 GiB
Duration : 1 h 41 min
Overall bit rate : 2 039 kb/s
Movie name : The.Woman.in.the.Window.2021.Дубляж.Netflix.WEB-DLRip-AVC.[wolf1245.MediaBit]
Encoded date : UTC 2021-05-15 11:37:49
Writing application : mkvmerge v56.1.0 ('My Friend') 64-bit
Writing library : libebml v1.4.2 + libmatroska v1.6.4

Video
ID : 1
Format : AVC
Format/Info : Advanced Video Codec
Format profile : [email protected]
Format settings : CABAC / 14 Ref Frames
Format settings, CABAC : Yes
Format settings, Reference frames : 14 frames
Codec ID : V_MPEG4/ISO/AVC
Duration : 1 h 41 min
Bit rate : 1 590 kb/s
Width : 1 024 pixels
Height : 428 pixels
Display aspect ratio : 2.40:1
Frame rate mode : Constant
Frame rate : 23.976 (24000/1001) FPS
Color space : YUV
Chroma subsampling : 4:2:0
Bit depth : 8 bits
Scan type : Progressive
Bits/(Pixel*Frame) : 0.151
Stream size : 1.13 GiB (78%)
Title : .[wolf1245.MediaBit]
Writing library : x264 core 157 r2958 57baac4
Encoding settings : cabac=1 / ref=14 / deblock=1:-3:-3 / analyse=0x3:0x133 / me=umh / subme=11 / psy=1 / psy_rd=1.00:0.07 / mixed_ref=1 / me_range=48 / chroma_me=1 / trellis=2 / 8x8dct=1 / cqm=0 / deadzone=21,11 / fast_pskip=1 / chroma_qp_offset=-3 / threads=10 / lookahead_threads=2 / sliced_threads=0 / nr=0 / decimate=1 / interlaced=0 / bluray_compat=0 / constrained_intra=0 / bframes=12 / b_pyramid=2 / b_adapt=2 / b_bias=0 / direct=3 / weightb=1 / open_gop=0 / weightp=2 / keyint=240 / keyint_min=24 / scenecut=40 / intra_refresh=0 / rc_lookahead=80 / rc=2pass / mbtree=1 / bitrate=1590 / ratetol=1.0 / qcomp=0.60 / qpmin=0 / qpmax=69 / qpstep=4 / cplxblur=20.0 / qblur=0.5 / vbv_maxrate=50000 / vbv_bufsize=62500 / nal_hrd=none / filler=0 / ip_ratio=1.40 / aq=3:0.80
Language : English
Default : Yes
Forced : No

Audio
ID : 2
Format : AC-3
Format/Info : Audio Coding 3
Commercial name : Dolby Digital
Codec ID : A_AC3
Duration : 1 h 41 min
Bit rate mode : Constant
Bit rate : 448 kb/s
Channel(s) : 6 channels
Channel layout : L R C LFE Ls Rs
Sampling rate : 48.0 kHz
Frame rate : 31.250 FPS (1536 SPF)
Bit depth : 16 bits
Compression mode : Lossy
Stream size : 327 MiB (22%)
Title : Дубляж | Netflix
Language : Russian
Service kind : Complete Main
Default : Yes
Forced : No

Text #1
ID : 3
Format : UTF-8
Codec ID : S_TEXT/UTF8
Codec ID/Info : UTF-8 Plain Text
Duration : 1 h 39 min
Bit rate : 1 b/s
Count of elements : 26
Stream size : 882 Bytes (0%)
Title : Forced
Language : Russian
Default : Yes
Forced : Yes

Text #2
ID : 4
Format : UTF-8
Codec ID : S_TEXT/UTF8
Codec ID/Info : UTF-8 Plain Text
Duration : 1 h 39 min
Bit rate : 68 b/s
Count of elements : 1078
Stream size : 49.8 KiB (0%)
Title : Full
Language : Russian
Default : No
Forced : No

Text #3
ID : 5
Format : UTF-8
Codec ID : S_TEXT/UTF8
Codec ID/Info : UTF-8 Plain Text
Duration : 1 h 39 min
Bit rate : 0 b/s
Count of elements : 20
Stream size : 682 Bytes (0%)
Title : Forced
Language : Ukrainian
Default : No
Forced : No

Text #4
ID : 6
Format : UTF-8
Codec ID : S_TEXT/UTF8
Codec ID/Info : UTF-8 Plain Text
Duration : 1 h 39 min
Bit rate : 70 b/s
Count of elements : 1039
Stream size : 51.7 KiB (0%)
Title : Full
Language : Ukrainian
Default : No
Forced : No

Text #5
ID : 7
Format : UTF-8
Codec ID : S_TEXT/UTF8
Codec ID/Info : UTF-8 Plain Text
Duration : 1 h 35 min
Bit rate : 86 b/s
Count of elements : 1547
Stream size : 60.5 KiB (0%)
Title : English
Language : English
Default : No
Forced : No
Релиз от: amp; MediaBit





Скачать Женщина в окне через торрент https://i114.fastpic.ru/big/2021/0515/54/8b2ec5698213600b58ec6ffd3d6cff54.png Скачать, смотреть онлайн Женщина в окне бесплантно в хорошем качестве Описание:Название: Женщина в окне Оригинальное название: The Woman in the WindowГод выхода: 2021Жанр: Триллер, криминал, детектив ... 10 10 6
Торрент: Зарегистрирован [2021-05-15 11:48] · скачан: 104 раз
Статус: √ проверено
Размер: 1.45 GB
Как cкачать? Как скачать Женщина в окне через торрент | UTorrent

28-11-2019 20:33  


Отключить вcю реклaмy на сайте, в т.ч. и в плеере онлайн просмотра!

    Дорогой пользователь! Огромная просьба, поблагодарите релизера, оцените раздачу и оставьте свои комментарий, если Вы скачали Женщина в окне через торрент бесплатно!!
    Комментировать посты могут только пользователи прошедшие не сложную регистрацию
    Показать сообщения:    


    Женщина в окне через торрент
    Скачать бесплатно Женщина в окне
    Женщина в окне скачать торрент
    Женщина в окне смотреть онлайн
    Cкачать фильм Женщина в окне бесплатно
    Женщина в окне скачать торрент в хорошем качестве
    Женщина в окне смотреть онлайн бесплатно в хорошем качестве
    Вы не можете начинать темы
    Вы не можете отвечать на сообщения
    Вы не можете редактировать свои сообщения
    Вы не можете удалять свои сообщения
    Вы не можете голосовать в опросах
    Вы не можете прикреплять файлы к сообщениям
    Вы можете скачивать файлы
    Женщина в окне / The Woman in the Window [2021, Триллер, криминал, детектив, WEB-DLRip-AVC] Дубляж [iTunes] от MediaBit смотреть онлайн, скачать торрент picoco.icu