Всегда рабочее зеркало просто перед .vidak.icu напиши любое слово или цифру, Пример http://687.vidak.icu

>

7.4

iTunes

7.4

2 сезон

6.6

iTunes

1

7.4

2 сезон

7.2

iTunes

6.0

MVO

13

6.1

iTunes

8.3

Пиратка

30

ULTIMATE

pack

9.9

Лицензия

ВАЖНО

ИГРА 18+

pack

7.3

RePack

MK11

7.7

RePack

jed

7.8

RePack

fifa19

8.5

RePack

RDR2

RePack

NEED FOR SPEED™ PAYBACK

1 сезон

9 сезон

Бесстыжие 9 сезон

Все сериалы

все сериалы на PB.wtf

RePack

FAR CRY 5

Anonymous, доброй ночи, мы катастрофически не успеваем собрать деньги на оплату серверов, помогите нам пожалуйста 5,10,15р., для нас важна любая помощь . В качестве благодарности мы отключим Вам всю рекламу на сайте (укажите свой ник в строку Ваше имя)!

×
  
Magnet ссылка

Поступь хаоса / Chaos Walking (Даг Лайман) [2021, Фантастика, приключения, BDRip 1080p] DUB [iTunes] pb.wtf

Поступь хаоса через торрент pb.wtf

Раздают: 3 [ 57 KB/s ]
Размер: 7.61 GB | Добавлен: 8 мес. назад | Торрент скачан:643 раза
Смотреть онлайн Поступь хаоса | Скачать    Ребята, помогите собрать деньги на оплату серверов!!!

16-05-2021 06:19 Поступь хаоса Скачать торрент  

Поступь хаоса | Chaos Walking
Год выпуска: 2021
Страна: США, Канада, Гонконг
Студия: Lionsgate, Quadrant Pictures
Жанр: Фантастика, приключения
Продолжительность: 01:48:53
Перевод: Дублированный | iTunes
Субтитры: Русские (Forced, Full), английские

Режиссер: Даг Лайман

rating

В ролях: Том Холланд, Дэйзи Ридли, Демиан Бичир, Дэвид Ойелоуо, Курт Саттер, Синтия Эриво, Бетани Энн Линд, Мадс Миккельсен, Ник Джонас, Рэй Маккиннон

Описание: 2257 год. Тодд обнаруживает загадочную девушку Виолу, потерпевшую крушение на его родной планете, где женщины давно исчезли, а все мужчины страдают от вируса — существуют в пространстве бесконечных мыслеобразов, которое называют шумом: рядом с другим человеком совершенно невозможно утаить свои воспоминания и мысли. В такой агрессивной реальности Виоле, чьи чувства остаются скрытыми, не выжить без помощи Тодда. Вместе им предстоит отправиться в опасное путешествие и столкнуться с самыми темными тайнами планеты.

Качество: BDRip 1080p
Формат: MKV

Видео: MPEG-4 AVC, 1920x804, 8980 Kbit/s, 23.976 fps
Аудио#1: 48 kHz, AC3, 5.1, 384 Kbps | iTunes | RUS |
Аудио#2: 48 kHz, AC3, 5.1, 640 Kbps | Оригинал | ENG |
скриншот  скриншот  скриншот  скриншот  скриншот  

General
Unique ID : 207156703911215222666396344408533028886 (0x9BD8EE0F8521311CE1B8FCB9D73AD016)
Complete name : F:VideoChaos.Walking.2021.BDRip.1080p.seleZen.mkv
Format : Matroska
Format version : Version 4
File size : 7.61 GiB
Duration : 1 h 48 min
Overall bit rate : 10.0 Mb/s
Movie name : Chaos Walking 2021 from seleZen
Encoded date : UTC 2021-05-15 10:08:52
Writing application : mkvmerge v55.0.0 ('Waiting For Space') 64-bit
Writing library : libebml v1.4.2 + libmatroska v1.6.4

Video
ID : 1
Format : AVC
Format/Info : Advanced Video Codec
Format profile : High@L4.1
Format settings : CABAC / 5 Ref Frames
Format settings, CABAC : Yes
Format settings, Reference : 5 frames
Codec ID : V_MPEG4/ISO/AVC
Duration : 1 h 48 min
Bit rate : 8 980 kb/s
Width : 1 920 pixels
Height : 804 pixels
Display aspect ratio : 2.40:1
Frame rate mode : Constant
Frame rate : 23.976 (24000/1001) FPS
Color space : YUV
Chroma subsampling : 4:2:0
Bit depth : 8 bits
Scan type : Progressive
Bits/(Pixel*Frame) : 0.243
Stream size : 6.83 GiB (90%)
Title : MTeam
Writing library : x264 core 157 r2938 2b00a84 TnP@MTeam Mod
Encoding settings : cabac=1 / ref=5 / deblock=1:-3:-3 / analyse=0x3:0x133 / me=umh / subme=10 / psy=1 / psy_rd=1.05:0.00 / mixed_ref=1 / me_range=32 / chroma_me=1 / trellis=2 / 8x8dct=1 / cqm=0 / deadzone=21,11 / fast_pskip=0 / chroma_qp_offset=-2 / threads=12 / lookahead_threads=2 / sliced_threads=0 / nr=0 / decimate=0 / interlaced=0 / bluray_compat=0 / constrained_intra=0 / bframes=8 / b_pyramid=2 / b_adapt=2 / b_bias=0 / direct=3 / weightb=1 / open_gop=0 / weightp=2 / keyint=250 / keyint_min=24 / scenecut=40 / intra_refresh=0 / rc_lookahead=250 / rc=crf / mbtree=0 / crf=16.8 / qcomp=0.60 / qpmin=0 / qpmax=69 / qpstep=4 / vbv_maxrate=62500 / vbv_bufsize=78125 / crf_max=0.0 / nal_hrd=none / filler=0 / ip_ratio=1.30 / pb_ratio=1.20 / aq=3:0.80
Language : English
Default : Yes
Forced : No
Color range : Limited
Color primaries : BT.709
Matrix coefficients : BT.709

Audio #1
ID : 2
Format : AC-3
Format/Info : Audio Coding 3
Commercial name : Dolby Digital
Codec ID : A_AC3
Duration : 1 h 48 min
Bit rate mode : Constant
Bit rate : 384 kb/s
Channel(s) : 6 channels
Channel layout : L R C LFE Ls Rs
Sampling rate : 48.0 kHz
Frame rate : 31.250 FPS (1536 SPF)
Compression mode : Lossy
Stream size : 299 MiB (4%)
Title : iTunes
Language : Russian
Service kind : Complete Main
Default : Yes
Forced : Yes

Audio #2
ID : 3
Format : AC-3
Format/Info : Audio Coding 3
Commercial name : Dolby Digital
Format settings : Dolby Surround EX
Codec ID : A_AC3
Duration : 1 h 48 min
Bit rate mode : Constant
Bit rate : 640 kb/s
Channel(s) : 6 channels
Channel layout : L R C LFE Ls Rs
Sampling rate : 48.0 kHz
Frame rate : 31.250 FPS (1536 SPF)
Compression mode : Lossy
Stream size : 499 MiB (6%)
Title : Original
Language : English
Service kind : Complete Main
Default : No
Forced : No

Text #1
ID : 4
Format : UTF-8
Codec ID : S_TEXT/UTF8
Codec ID/Info : UTF-8 Plain Text
Duration : 1 h 40 min
Bit rate : 0 b/s
Count of elements : 11
Stream size : 498 Bytes (0%)
Title : Forced
Language : Russian
Default : No
Forced : No

Text #2
ID : 5
Format : UTF-8
Codec ID : S_TEXT/UTF8
Codec ID/Info : UTF-8 Plain Text
Duration : 1 h 38 min
Bit rate : 91 b/s
Count of elements : 1529
Stream size : 66.1 KiB (0%)
Title : Full [FOCS]
Language : Russian
Default : No
Forced : No

Text #3
ID : 6
Format : UTF-8
Codec ID : S_TEXT/UTF8
Codec ID/Info : UTF-8 Plain Text
Duration : 1 h 37 min
Bit rate : 56 b/s
Count of elements : 1504
Stream size : 40.6 KiB (0%)
Title : Full
Language : English
Default : No
Forced : No

Text #4
ID : 7
Format : UTF-8
Codec ID : S_TEXT/UTF8
Codec ID/Info : UTF-8 Plain Text
Duration : 1 h 38 min
Bit rate : 64 b/s
Count of elements : 1784
Stream size : 46.3 KiB (0%)
Title : SDH
Language : English
Default : No
Forced : No

Menu
00:00:00.000 : en:Chapter 01
00:05:16.858 : en:Chapter 02
00:13:20.550 : en:Chapter 03
00:20:18.634 : en:Chapter 04
00:27:39.867 : en:Chapter 05
00:35:54.110 : en:Chapter 06
00:39:41.254 : en:Chapter 07
00:45:45.409 : en:Chapter 08
00:51:22.204 : en:Chapter 09
00:56:34.558 : en:Chapter 10
01:01:40.363 : en:Chapter 11
01:07:13.446 : en:Chapter 12
01:15:41.996 : en:Chapter 13
01:22:30.821 : en:Chapter 14
01:30:43.938 : en:Chapter 15
01:36:45.800 : en:Chapter 16

pb.wtf



Скачать Поступь хаоса через торрент https://i114.fastpic.ru/big/2021/0516/13/d3da9f0c01026d705f32d1357e6df813.jpg Скачать, смотреть онлайн Поступь хаоса бесплантно в хорошем качестве Описание: 2257 год. Тодд обнаруживает загадочную девушку Виолу, потерпевшую крушение на его родной планете, где женщины давно исчезли, а ... 10 10 12
Info! Золотая раздача, скачанное не засчитывается.
Торрент: Зарегистрирован [2021-05-16 06:19] · скачан: 643 раз
Статус: √ проверено
Размер: 7.61 GB
Как cкачать? Как скачать Поступь хаоса через торрент | UTorrent

% Раздел Тема Автор DL S | L
Фильмы 2021 [DVDrip, WEB-DLRip, HDrip] (DUB, MVO) [ 1.41 GB ] Поступь хаоса / Chaos Walking [2021 BDRip] - Twi7ter Скачать
39 | 1
Ultra HD (UHD: 2K, 4K, 8K) — видео сверхвысокой чёткости [ 48.98 GB ] Поступь хаоса / Chaos Walking [2021 UHD BDRemux 2160p] bober100 Скачать
1 | 0
Фильмы (Blu-ray, BD-Remux, HDDVD) [ 28.97 GB ] Поступь хаоса / Chaos Walking [2021 BD Remux 1080p] bober100 Скачать
2 | 0
Фильмы 2021 [DVDrip, WEB-DLRip, HDrip] (DUB, MVO) [ 1.46 GB ] Поступь хаоса / Chaos Walking [2021 BDRip] bober100 Скачать
4 | 0
Фильмы 2021 [DVDrip, WEB-DLRip, HDrip] (DUB, MVO) [ 748 MB ] Поступь хаоса / Chaos Walking [2021 HDRip] bober100 Скачать
1 | 0
Фильмы [HD 720p, 1080p] (Хороший звук DUB, MVO) [ 3.64 GB ] Поступь хаоса / Chaos Walking [2021 BDRip 720p] bober100 Скачать
2 | 0
Фильмы (WEB-DL 720p, 1080p) [ 6.11 GB ] Поступь хаоса / Chaos Walking [2021 WEB-DL 1080p] MVO [HDRezka Studio] bober100 Скачать
2 | 0

28-11-2019 20:33  

Отключить всю рекламу на сайте

25-07-2021 10:27 Поступь хаоса Скачать торрент  

Название кина и сама фильма ваще не в тему. Местами интересно, в основном нудятина с тупятиной, за неимением лучшего- на разок.pb.wtf



    Дорогой пользователь! Огромная просьба, поблагодарите релизера, оцените раздачу и оставьте свои комментарий, если Вы скачали Поступь хаоса через торрент бесплатно!
    Комментировать посты могут только пользователи прошедшие не сложную регистрацию
    Показать сообщения:    

    Поступь хаоса через торрент
    Скачать бесплатно Поступь хаоса
    Поступь хаоса скачать торрент
    Поступь хаоса смотреть онлайн
    Cкачать фильм Поступь хаоса бесплатно
    Поступь хаоса скачать торрент в хорошем качестве
    Поступь хаоса смотреть онлайн бесплатно в хорошем качестве


    Вы не можете начинать темы
    Вы не можете отвечать на сообщения
    Вы не можете редактировать свои сообщения
    Вы не можете удалять свои сообщения
    Вы не можете голосовать в опросах
    Вы не можете прикреплять файлы к сообщениям
    Вы можете скачивать файлы