Лицензия

MVO

1

1 сезон

Лицензия

Лицензия

13

MVO

1 сезон

Deluxe Edition

pack

Рекомендуем

30

Repack

ВАЖНО

ВАЖНО

Ghostwire

RePack

jed

RePack

fifa19

RePack

RDR2

RePack

NEED FOR SPEED™ PAYBACK

RePack

Кинопоиск HD

 Острые козырьки 6 сезон

6 сезон

FAR CRY 6

RePack

Лицензия

MVO

1

1 сезон

1 сезон

Лицензия

  

Крёстный отец Гарлема / Godfather of Harlem / Сезон: 2 / Серии: 1-10 из 10 (Джо Чаппелль, Гильермо Наварро, Эрнест Р. Дикерсон) [2021, Драма, криминал, WEB-DL 1080p] MVO [TVShows]

Крёстный отец Гарлема через торрент pb.wtf

Размер: 33.43 GB | Добавлен: 1 год назад | Торрент скачан:38 раз
Смотреть онлайн Крёстный отец Гарлема | Скачать   

18-05-2021 01:18 Крёстный отец Гарлема Скачать торрент  

Крёстный отец Гарлема
Godfather of Harlem

«***»
Год выпуска: 2019
Страна: США
Выпущено: ABC Signature Studios
Жанр: Драма, криминал
Продолжительность: ~ 00:52:00
Перевод: Профессиональный (многоголосый) | TVShows
Субтитры: Английские (Full, SDH)

Режиссер: Джо Чаппелль, Гильермо Наварро, Эрнест Р. Дикерсон

rating

В ролях: Форест Уитакер (Forest Whitaker), Ильфенеш Хадера (Ilfenesh Hadera), Люси Фрай (Lucy Fry), Винсент Д’Онофрио (Vincent D'Onofrio), Эрик Ларей Харви (Erik LaRay Harvey), Джанкарло Эспозито (Giancarlo Esposito), Рафи Гаврон (Rafi Gavron), Элвис Ноласко (Elvis Nolasco)

Описание: История одного из самых влиятельных гангстеров в Нью-Йорке 1960-х, афроамериканца Бампи Джонсона. После одиннадцати лет тюрьмы «король» преступного мира Бампи Джонсон возвращается в Гарлем. Родной район сильно изменился за эти годы: на улицах установилась жестокая Влacть генуэзской мафии, быстро набирающей силу. На первый план выходит преступная Семья Дженовезе, в которой никто не рад возвращению Бампи. Свергнутому королю не справиться в одиночестве со всеми врагами, и он заручается поддержкой своего старого знакомого – знаменитого исламского активиста и радикального борца за права афроамериканцев Малкольма Икса.

Качество: WEB-DL 1080p
Формат: MKV

Видео: AVC, 1920x1080 (16:9), 23.976 кадров/сек, ~8400 Кбит/сек, 0.169 bit/pixel
Аудио#1 RUS: AC3, 48 kHz, 3/2 (L,C,R,l,r) + LFE ch, 384 Кбит/сек | TVShows
Аудио#2 ENG: E-AC3, 48 kHz, 3/2 (L R C LFE Ls Rs) ch, 640 Кбит/сек
скриншот  скриншот  скриншот  скриншот  

Общее
Уникальный идентификатор : 77984417574339484524572974302063729947 (0x3AAB40A3DA6D3B3F22FB56F9B61F9D1B)
Полное имя : E:\Godfather.of.Harlem.S02E01.1080p.AMZN.WEB-DL.DDP5.1.H.264-NTb.RGzsRutracker.Wentworth_Miller.mkv
Формат : Matroska
Версия формата : Version 4
Размер файла : 3,49 Гбайт
Продолжительность : 52 м. 57 с.
Общий поток : 9 434 Кбит/сек
Название фильма : Godfather of Harlem 02x01 (The French Connection) - Release by Wentworth_Miller
Дата кодирования : UTC 2021-05-17 21:24:53
Программа кодирования : mkvmerge v53.0.0 ('Fool's Gold') 64-bit
Библиотека кодирования : libebml v1.4.1 + libmatroska v1.6.2

Видео
Идентификатор : 1
Формат : AVC
Формат/Информация : Advanced Video Codec
Профиль формата : [email protected]
Настройки формата : CABAC / 4 Ref Frames
Параметр CABAC формата : Да
Параметр RefFrames формата : 4 кадра
Идентификатор кодека : V_MPEG4/ISO/AVC
Продолжительность : 52 м. 57 с.
Вид битрейта : Постоянный
Битрейт : 8 408 Кбит/сек
Номинальный битрейт : 10 000 Кбит/сек
Ширина : 1 920 пикселей
Высота : 1 080 пикселей
Соотношение сторон : 16:9
Режим частоты кадров : Постоянный
Частота кадров : 23,976 (24000/1001) кадра/сек
Цветовое пространство : YUV
Субдискретизация насыщенности : 4:2:0
Битовая глубина : 8 бит
Тип развёртки : Прогрессивная
Бит/(Пиксели*Кадры) : 0.169
Размер потока : 3,11 Гбайт (89%)
Заголовок : The French Connection
Язык : English
Default : Да
Forced : Нет
Цветовой диапазон : Limited
Основные цвета : BT.709
Характеристики трансфера : BT.709
Коэффициенты матрицы : BT.709

Аудио #1
Идентификатор : 2
Формат : AC-3
Формат/Информация : Audio Coding 3
Коммерческое название : Dolby Digital
Идентификатор кодека : A_AC3
Продолжительность : 52 м. 57 с.
Вид битрейта : Постоянный
Битрейт : 384 Кбит/сек
Каналы : 6 каналов
Channel layout : L R C LFE Ls Rs
Частота : 48,0 КГц
Частота кадров : 31,250 кадров/сек (1536 SPF)
Метод сжатия : С потерями
Размер потока : 145 Мбайт (4%)
Заголовок : TVShows
Язык : Russian
Service kind : Complete Main
Default : Да
Forced : Нет

Аудио #2
Идентификатор : 3
Формат : E-AC-3
Формат/Информация : Enhanced AC-3
Коммерческое название : Dolby Digital Plus
Идентификатор кодека : A_EAC3
Продолжительность : 52 м. 57 с.
Вид битрейта : Постоянный
Битрейт : 640 Кбит/сек
Каналы : 6 каналов
Channel layout : L R C LFE Ls Rs
Частота : 48,0 КГц
Частота кадров : 31,250 кадров/сек (1536 SPF)
Метод сжатия : С потерями
Размер потока : 242 Мбайт (7%)
Язык : English
Service kind : Complete Main
Default : Нет
Forced : Нет

Текст #1
Идентификатор : 4
Формат : UTF-8
Идентификатор кодека : S_TEXT/UTF8
Идентификатор кодека/Информация : UTF-8 Plain Text
Продолжительность : 51 м. 23 с.
Битрейт : 76 бит/сек
Count of elements : 922
Размер потока : 28,9 Кбайт (0%)
Язык : English
Default : Нет
Forced : Нет

Текст #2
Идентификатор : 5
Формат : UTF-8
Идентификатор кодека : S_TEXT/UTF8
Идентификатор кодека/Информация : UTF-8 Plain Text
Продолжительность : 52 м. 26 с.
Битрейт : 79 бит/сек
Count of elements : 1029
Размер потока : 30,4 Кбайт (0%)
Заголовок : SDH
Язык : English
Default : Нет
Forced : Нет

Внимание! Раздача ведётся путём добавления новых серий; при каждом добавлении создаётся новый торрент.
Чтобы начать докачку новой серии, пользователям необходимо сделать следующее:
1. Остановить скачивание;
2. Удалить старый торрент у себя из клиента (старые серии удалять не надо);
3. Скачать новый торрент и запустить его у себя в клиенте вместо старого, при этом указать клиенту путь в старую папку куда и должно происходить скачивание новых серий. Ваш клиент при этом должен произвести хеширование (проверку) старой папки и будет докачивать только те серии, которых у вас ещё нет. Старые серии при этом не удаляются, а продолжают раздаваться! Eсли вы уже удалили старые серии, то предотвратить повторную закачку старых серий можно, отжав галочку в соответствующих местах при запуске нового торрента.




Скачать Крёстный отец Гарлема через торрент https://i1-imageban-ru.translate.goog/out/2021/05/16/d8286e5eb441b706f123aa4a8e292ca4.png Скачать, смотреть онлайн Крёстный отец Гарлема бесплантно в хорошем качестве Описание: История одного из самых влиятельных гангстеров в Нью-Йорке 1960-х, афроамериканца Бампи Джонсона. После одиннадцати лет тюрьмы ... 10 10 6
Info! Золотая раздача, скачанное не засчитывается.
Торрент: Зарегистрирован [2021-09-02 02:51] · скачан: 38 раз
Статус: √ проверено
Размер: 33.43 GB
Как cкачать? Как скачать Крёстный отец Гарлема через торрент | UTorrent

% Раздел Тема Автор DL S | L
Зарубежные сериалы [ 15.75 GB ] Крёстный отец Гарлема / Godfather of Harlem / Сезон: 2 / Серии: 1-10 из 10 | TVShows | 720p bober100 Скачать
2 | 0

28-11-2019 20:33  

Отключить вcю реклaмy на сайте

    Дорогой пользователь! Огромная просьба, поблагодарите релизера, оцените раздачу и оставьте свои комментарий, если Вы скачали Крёстный отец Гарлема через торрент бесплатно!!
    Комментировать посты могут только пользователи прошедшие не сложную регистрацию
    Показать сообщения:    


    Крёстный отец Гарлема через торрент
    Скачать бесплатно Крёстный отец Гарлема
    Крёстный отец Гарлема скачать торрент
    Крёстный отец Гарлема смотреть онлайн
    Cкачать фильм Крёстный отец Гарлема бесплатно
    Крёстный отец Гарлема скачать торрент в хорошем качестве
    Крёстный отец Гарлема смотреть онлайн бесплатно в хорошем качестве
    Вы не можете начинать темы
    Вы не можете отвечать на сообщения
    Вы не можете редактировать свои сообщения
    Вы не можете удалять свои сообщения
    Вы не можете голосовать в опросах
    Вы не можете прикреплять файлы к сообщениям
    Вы можете скачивать файлы