Достать ножи: Стеклянная луковица

MVO

Добыча

Дубляж

Уэнсдэй

1 сезон

Тор

Дубляж

13 клиническая

1 сезон

Жестокая ночь

MVO

Одни из нас

1 сезон

Deluxe

pack

Рекомендуем

30

Пиратка

ВАЖНО

ВАЖНО

Ghostwire

Пиратка

jed

RePack

nioh2

RePack

RDR2

RePack

NEED FOR SPEED™ PAYBACK

RePack

скачать торрент

Кинопоиск HD

Острые козырьки 6 сезон

6 сезон

FAR CRY 6

RePack

скачать торрент

Лицензия

скачать торрент

MVO

1

1 сезон

скачать торрент

1 сезон

скачать торрент

Лицензия

  

Поступь хаоса / Chaos Walking (Даг Лайман) [2021, Фантастика, приключения, BD Remux 1080p] Дубляж [iTunes]

Поступь хаоса через торрент pb.wtf

Раздают: 1 [ 0 KB/s ]
Размер: 28.97 GB | Добавлен: 1 год 8 мес. назад | Торрент скачан:79 раз
Смотреть онлайн | Скачать | Поддержите нас   

18-05-2021 16:20 Поступь хаоса Скачать торрент  

Поступь хаоса | Chaos Walking
Год выпуска: 2021
Страна: США, Канада, Гонконг
Студия: Lionsgate, Quadrant Pictures
Жанр: Фантастика, приключения
Продолжительность: 01:48:53
Перевод: Дублированный | iTunes
Субтитры: Русские (Forced, Full), английские

Режиссер: Даг Лайман

rating

В ролях: Том Холланд, Дэйзи Ридли, Демиан Бичир, Дэвид Ойелоуо, Курт Саттер, Синтия Эриво, Бетани Энн Линд, Мадс Миккельсен, Ник Джонас, Рэй Маккиннон

Описание: 2257 год. Тодд обнаруживает загадочную девушку Виолу, потерпевшую крушение на его родной планете, где женщины давно исчезли, а все мужчины страдают от вируса — существуют в пространстве бесконечных мыслеобразов, которое называют шумом: рядом с другим человеком совершенно невозможно утаить свои воспоминания и мысли. В такой агрессивной реальности Виоле, чьи чувства остаются скрытыми, не выжить без помощи Тодда. Вместе им предстоит отправиться в опасное путешествие и столкнуться с самыми темными тайнами планеты.

Качество: BD Remux 1080p
Формат: MKV

Видео: MPEG-4 AVC, 1920x1080, 32.6 Mbit/s, 23.976 fps
Аудио#1: 48 kHz, AC3, 5.1, 384 Kbps | iTunes | RUS |
Аудио#2: 48 kHz, TrueHD, 7.1, 4405 Kbps | Оригинал | ENG |
Аудио#3: 48 kHz, AC3, 5.1, 640 Kbps | Оригинал | ENG |
скриншот  скриншот  скриншот  скриншот  скриншот  

General
Unique ID : 319983662629193532764249880617796552316 (0xF0BA9C9C1F21A80C6378B9572FF4C67C)
Complete name : F:VideoChaos.Walking.2021.BDREMUX.1080p.seleZen.mkv
Format : Matroska
Format version : Version 4
File size : 29.0 GiB
Duration : 1 h 48 min
Overall bit rate mode : Variable
Overall bit rate : 38.1 Mb/s
Movie name : Chaos Walking 2021 from seleZen
Encoded date : UTC 2021-05-18 12:59:05
Writing application : mkvmerge v55.0.0 ('Waiting For Space') 64-bit
Writing library : libebml v1.4.2 + libmatroska v1.6.4

Video
ID : 1
Format : AVC
Format/Info : Advanced Video Codec
Format profile : [email protected]
Format settings : CABAC / 4 Ref Frames
Format settings, CABAC : Yes
Format settings, Reference : 4 frames
Codec ID : V_MPEG4/ISO/AVC
Duration : 1 h 48 min
Bit rate mode : Variable
Bit rate : 32.6 Mb/s
Maximum bit rate : 36.5 Mb/s
Width : 1 920 pixels
Height : 1 080 pixels
Display aspect ratio : 16:9
Frame rate mode : Constant
Frame rate : 23.976 (24000/1001) FPS
Color space : YUV
Chroma subsampling : 4:2:0
Bit depth : 8 bits
Scan type : Progressive
Bits/(Pixel*Frame) : 0.655
Stream size : 24.8 GiB (86%)
Language : English
Default : Yes
Forced : No

Audio #1
ID : 2
Format : AC-3
Format/Info : Audio Coding 3
Commercial name : Dolby Digital
Codec ID : A_AC3
Duration : 1 h 48 min
Bit rate mode : Constant
Bit rate : 384 kb/s
Channel(s) : 6 channels
Channel layout : L R C LFE Ls Rs
Sampling rate : 48.0 kHz
Frame rate : 31.250 FPS (1536 SPF)
Compression mode : Lossy
Stream size : 299 MiB (1%)
Title : iTunes
Language : Russian
Service kind : Complete Main
Default : Yes
Forced : Yes

Audio #2
ID : 3
Format : MLP FBA 16-ch
Format/Info : Meridian Lossless Packing FBA with 16-channel presentation
Commercial name : Dolby TrueHD with Dolby Atmos
Codec ID : A_TRUEHD
Duration : 1 h 48 min
Bit rate mode : Variable
Bit rate : 4 405 kb/s
Maximum bit rate : 6 912 kb/s
Channel(s) : 8 channels
Channel layout : L R C LFE Ls Rs Lb Rb
Sampling rate : 48.0 kHz
Frame rate : 1 200.000 FPS (40 SPF)
Compression mode : Lossless
Stream size : 3.35 GiB (12%)
Title : Original
Language : English
Default : No
Forced : No
Number of dynamic objects : 11
Bed channel count : 1 channel
Bed channel configuration : LFE

Audio #3
ID : 4
Format : AC-3
Format/Info : Audio Coding 3
Commercial name : Dolby Digital
Format settings : Dolby Surround EX
Codec ID : A_AC3
Duration : 1 h 48 min
Bit rate mode : Constant
Bit rate : 640 kb/s
Channel(s) : 6 channels
Channel layout : L R C LFE Ls Rs
Sampling rate : 48.0 kHz
Frame rate : 31.250 FPS (1536 SPF)
Compression mode : Lossy
Stream size : 499 MiB (2%)
Language : English
Service kind : Complete Main
Default : No
Forced : No

Text #1
ID : 5
Format : UTF-8
Codec ID : S_TEXT/UTF8
Codec ID/Info : UTF-8 Plain Text
Duration : 1 h 40 min
Bit rate : 0 b/s
Count of elements : 11
Stream size : 498 Bytes (0%)
Title : Forced
Language : Russian
Default : Yes
Forced : Yes

Text #2
ID : 6
Format : UTF-8
Codec ID : S_TEXT/UTF8
Codec ID/Info : UTF-8 Plain Text
Duration : 1 h 38 min
Bit rate : 91 b/s
Count of elements : 1529
Stream size : 66.1 KiB (0%)
Title : Full [FOCS]
Language : Russian
Default : No
Forced : No

Text #3
ID : 7
Format : UTF-8
Codec ID : S_TEXT/UTF8
Codec ID/Info : UTF-8 Plain Text
Duration : 1 h 37 min
Bit rate : 56 b/s
Count of elements : 1504
Stream size : 40.6 KiB (0%)
Title : Full
Language : English
Default : No
Forced : No

Text #4
ID : 8
Format : UTF-8
Codec ID : S_TEXT/UTF8
Codec ID/Info : UTF-8 Plain Text
Duration : 1 h 38 min
Bit rate : 64 b/s
Count of elements : 1784
Stream size : 46.3 KiB (0%)
Title : SDH
Language : English
Default : No
Forced : No

Menu
00:00:00.000 : en:Chapter 01
00:05:16.858 : en:Chapter 02
00:13:20.550 : en:Chapter 03
00:20:18.634 : en:Chapter 04
00:27:39.867 : en:Chapter 05
00:35:54.110 : en:Chapter 06
00:39:41.254 : en:Chapter 07
00:45:45.409 : en:Chapter 08
00:51:22.204 : en:Chapter 09
00:56:34.558 : en:Chapter 10
01:01:40.363 : en:Chapter 11
01:07:13.446 : en:Chapter 12
01:15:41.996 : en:Chapter 13
01:22:30.821 : en:Chapter 14
01:30:43.938 : en:Chapter 15
01:36:45.800 : en:Chapter 16




Скачать Поступь хаоса через торрент https://i114.fastpic.ru/big/2021/0516/13/d3da9f0c01026d705f32d1357e6df813.jpg Скачать, смотреть онлайн Поступь хаоса бесплантно в хорошем качестве Описание: 2257 год. Тодд обнаруживает загадочную девушку Виолу, потерпевшую крушение на его родной планете, где женщины давно исчезли, а ... 9.9 10 7
Торрент: Зарегистрирован [2021-05-18 16:20] · скачан: 79 раз
Статус: √ проверено
Размер: 28.97 GB
Как cкачать? Как скачать Поступь хаоса через торрент | UTorrent

% Раздел Тема Автор DL S | L
Фильмы [HD 720p, 1080p] (Хороший звук DUB, MVO) [ 7.61 GB ] Поступь хаоса / Chaos Walking | iTunes | 1080p bober100 Скачать
2 | 0
Фильмы 2021 [DVDrip, WEB-DLRip, HDrip] (DUB, MVO) [ 1.41 GB ] Поступь хаоса / Chaos Walking | Лицензия | BDRip Twi7ter Скачать
18 | 0
Ultra HD (UHD: 2K, 4K, 8K) [ 48.98 GB ] Поступь хаоса / Chaos Walking | iTunes | 2160p bober100 Скачать
1 | 0
Фильмы 2021 [DVDrip, WEB-DLRip, HDrip] (DUB, MVO) [ 1.46 GB ] Поступь хаоса / Chaos Walking | iTunes | BDRip bober100 Скачать
2 | 0
Фильмы 2021 [DVDrip, WEB-DLRip, HDrip] (DUB, MVO) [ 748 MB ] Поступь хаоса / Chaos Walking | iTunes | HDRip bober100 Скачать
1 | 0
Фильмы [HD 720p, 1080p] (Хороший звук DUB, MVO) [ 3.64 GB ] Поступь хаоса / Chaos Walking | iTunes | 720p bober100 Скачать
1 | 0
Фильмы (WEB-DL 720p, 1080p) [ 6.11 GB ] Поступь хаоса / Chaos Walking | HDRezka Studio | 1080p bober100 Скачать
1 | 0

28-11-2019 20:33  


Отключить вcю реклaмy на сайте, в т.ч. и в плеере онлайн просмотра!

    Дорогой пользователь! Огромная просьба, поблагодарите релизера, оцените раздачу и оставьте свои комментарий, если Вы скачали Поступь хаоса через торрент бесплатно!!
    Комментировать посты могут только пользователи прошедшие не сложную регистрацию
    Показать сообщения:    


    Поступь хаоса через торрент
    Скачать бесплатно Поступь хаоса
    Поступь хаоса скачать торрент
    Поступь хаоса смотреть онлайн
    Cкачать фильм Поступь хаоса бесплатно
    Поступь хаоса скачать торрент в хорошем качестве
    Поступь хаоса смотреть онлайн бесплатно в хорошем качестве
    Вы не можете начинать темы
    Вы не можете отвечать на сообщения
    Вы не можете редактировать свои сообщения
    Вы не можете удалять свои сообщения
    Вы не можете голосовать в опросах
    Вы не можете прикреплять файлы к сообщениям
    Вы можете скачивать файлы
    Поступь хаоса / Chaos Walking [2021, Фантастика, приключения, BD Remux 1080p] Дубляж [iTunes] смотреть онлайн, скачать торрент picoco.icu