1 сезон

3 сезон

iTunes

1

iTunes

DUB Netflix

iTunes

13

1 сезон

RePack

30

Deluxe

pack

Легкие деньги

ВАЖНО

ИГРА 18+

pack

RePack

MK11

RePack

jed

RePack

fifa19

RePack

RDR2

RePack

NEED FOR SPEED™ PAYBACK

4 сезон

9 сезон

Бесстыжие 9 сезон

Все сериалы

все сериалы на PB.wtf

RePack

FAR CRY 5

Anonymous, доброе утро, мы не успеваем до 1 числа собрать деньги на оплату серверов, помогите нам пожалуйста в это трудное время. В качестве благодарности мы отключим Вам всю рекламу на сайте (укажите свой ник в строку Ваше имя)!

×
  
Magnet ссылка

Лагерь «Холодный Ручей» / Camp Cold Brook (Энди Палмер) [2018, Ужасы, BDRip 1080p] DVO [SDI Media] pb.wtf

Лагерь «Холодный Ручей» через торрент pb.wtf

Раздают: 1 [ 0 KB/s ]
Размер: 10.67 GB | Добавлен: 26 д. назад | Торрент скачан:68 раз
Скачать  

20-05-2021 03:52 Лагерь «Холодный Ручей» Скачать торрент  

Лагерь «Холодный Ручей» | Camp Cold Brook
Год выпуска: 2018
Страна: США
Студия: Petri Entertainment, Renfield Productions, WeatherVane Productions
Жанр: Ужасы
Продолжительность: 01:28:55
Перевод: Профессиональный (двухголосый) | SDI Media
Субтитры: Английские (Full)

Режиссер: Энди Палмер

rating

В ролях: Чад Майкл Мюррэй, Даниэль Харрис, Кортни Гейнс, Майкл Эрик Рейд, Кэндис Де Виссер, Лорен Ледесма, Кейт Джонс, Джейсон Ван Эман, Джульетт Кида, Мэри Кэтрин Брайант

Описание: В поисках материала для очередной серии телевизионной программы, команда исследователей паранормальных явлений, отправляется в заброшенный летний лагерь под названием «Холодный Ручей», где 20 лет назад произошло массовое убийство. Но впервые за свою карьеру они сталкиваются с чем-то по-настоящему необъяснимым и пугающим.

Качество: BDRip 1080p
Формат: MKV

Видео: MPEG-4 AVC, 1920x802 (2.40:1), 16.1 Mbps, 23.976 fps
Aудио 1 Russian: 48 kHz, AC3, 3/2 (L,C,R,l,r) + LFE ch, ~448 kbps
Aудио 2 English: 48 kHz, AC3, 3/2 (L,C,R,l,r) + LFE ch, ~640 kbps
скриншот  скриншот  скриншот  скриншот  скриншот  

General
Unique ID : 190628139794542007757486888864110600736 (0x8F69A4EEB3E572FBA335F519DD7BE220)
Complete name : Camp.Cold.Brook.2018.BDRip.1080p.mkv
Format : Matroska
Format version : Version 4 / Version 2
File size : 10.7 GiB
Duration : 1 h 28 min
Overall bit rate : 17.2 Mb/s
Encoded date : UTC 2021-05-19 21:23:36
Writing application : mkvmerge v7.8.0 ('River Man') 32bit built on Apr 3 2015 12:11:22
Writing library : libebml v1.3.1 + libmatroska v1.4.2

Video
ID : 1
Format : AVC
Format/Info : Advanced Video Codec
Format profile : High@L4.1
Format settings, CABAC : Yes
Format settings, RefFrames : 4 frames
Codec ID : V_MPEG4/ISO/AVC
Duration : 1 h 28 min
Bit rate : 16.1 Mb/s
Width : 1 920 pixels
Height : 802 pixels
Display aspect ratio : 2.40:1
Frame rate mode : Constant
Frame rate : 23.976 (24000/1001) FPS
Color space : YUV
Chroma subsampling : 4:2:0
Bit depth : 8 bits
Scan type : Progressive
Bits/(Pixel*Frame) : 0.436
Stream size : 9.99 GiB (94%)
Writing library : x264 core 157 r2867+150 7e91e0e t_mod_Custom_2 [8-bit@all X86_64]
Encoding settings : cabac=1 / ref=4 / deblock=1:-3:-3 / analyse=0x3:0x133 / me=umh / subme=11 / psy=1 / fade_compensate=0.00 / psy_rd=1.00:0.00 / mixed_ref=1 / me_range=64 / chroma_me=1 / trellis=2 / 8x8dct=1 / cqm=0 / deadzone=21,11 / fast_pskip=0 / chroma_qp_offset=-3 / threads=24 / lookahead_threads=4 / sliced_threads=0 / nr=0 / decimate=1 / interlaced=0 / bluray_compat=0 / constrained_intra=0 / fgo=0 / bframes=8 / b_pyramid=2 / b_adapt=2 / b_bias=0 / direct=3 / weightb=1 / open_gop=0 / weightp=2 / keyint=250 / keyint_min=23 / scenecut=40 / intra_refresh=0 / rc=crf / mbtree=0 / crf=18.0000 / qcomp=0.70 / qpmin=0:0:0 / qpmax=69:69:69 / qpstep=4 / ip_ratio=1.40 / pb_ratio=1.30 / aq=3:1.00 / aq-sensitivity=10.00 / aq-factor=1.00:1.00:1.00 / aq2=0 / aq3=0
Language : English
Default : Yes
Forced : No

Audio #1
ID : 2
Format : AC-3
Format/Info : Audio Coding 3
Format settings, Endianness : Big
Codec ID : A_AC3
Duration : 1 h 28 min
Bit rate mode : Constant
Bit rate : 448 kb/s
Channel(s) : 6 channels
Channel positions : Front: L C R, Side: L R, LFE
Sampling rate : 48.0 kHz
Frame rate : 31.250 FPS (1536 SPF)
Bit depth : 16 bits
Compression mode : Lossy
Stream size : 285 MiB (3%)
Title : MVO (SDI Media)
Language : Russian
Service kind : Complete Main
Default : Yes
Forced : No

Audio #2
ID : 3
Format : AC-3
Format/Info : Audio Coding 3
Format settings, Endianness : Big
Codec ID : A_AC3
Duration : 1 h 28 min
Bit rate mode : Constant
Bit rate : 640 kb/s
Channel(s) : 6 channels
Channel positions : Front: L C R, Side: L R, LFE
Sampling rate : 48.0 kHz
Frame rate : 31.250 FPS (1536 SPF)
Bit depth : 16 bits
Compression mode : Lossy
Stream size : 407 MiB (4%)
Title : Original
Language : English
Service kind : Complete Main
Default : No
Forced : No

Text
ID : 4
Format : UTF-8
Codec ID : S_TEXT/UTF8
Codec ID/Info : UTF-8 Plain Text
Duration : 1 h 24 min
Bit rate : 39 b/s
Count of elements : 949
Stream size : 24.7 KiB (0%)
Title : Full
Language : English
Default : No
Forced : No

Menu
00:00:00.000 : en:Chapter 01
00:08:07.987 : en:Chapter 02
00:14:36.250 : en:Chapter 03
00:23:41.170 : en:Chapter 04
00:30:43.300 : en:Chapter 05
00:36:53.002 : en:Chapter 06
00:46:15.982 : en:Chapter 07
00:53:51.353 : en:Chapter 08
01:01:50.498 : en:Chapter 09
01:08:35.236 : en:Chapter 10
01:16:21.786 : en:Chapter 11
01:24:20.430 : en:Chapter 12

pb.wtf



Скачать Лагерь «Холодный Ручей» через торрент http://i114.fastpic.ru/big/2021/0519/5f/d45f4b673959c65b9f2807af56ec5b5f.jpg Скачать фильм Лагерь «Холодный Ручей» через торрент бесплантно в хорошем качестве Описание: В поисках материала для очередной серии телевизионной программы, команда исследователей паранормальных явлений, отправляется в ... 9.6 10 7
Торрент: Зарегистрирован [2021-05-20 03:52] · скачан: 68 раз
Статус: √ проверено
Размер: 10.67 GB
Как cкачать? Как скачать Лагерь «Холодный Ручей» через торрент | UTorrent

% Раздел Тема Автор DL S | L
Фильмы 2018 [DVDrip, WEB-DLRip, HDrip] (DUB, MVO) [ 1.46 GB ] Лагерь «Холодный Ручей» / Camp Cold Brook [2018 BDRip] DVO [SDI Media] bober100 Скачать
8 | 0

28-11-2019 20:33  

Отключить всю рекламу на сайте

    Дорогой пользователь! Огромная просьба, поблагодарите релизера, оцените раздачу и оставьте свои комментарий, если Вы скачали Лагерь «Холодный Ручей» через торрент бесплатно! Внесите свою лепту в развитие PiratBit!
    Комментировать посты могут только пользователи прошедшие не сложную регистрацию
    Показать сообщения:    

    Лагерь «Холодный Ручей» через торрент
    Скачать бесплатно Лагерь «Холодный Ручей»
    Лагерь «Холодный Ручей» скачать торрент
    Лагерь «Холодный Ручей» смотреть онлайн
    Cкачать фильм Лагерь «Холодный Ручей» бесплатно
    Лагерь «Холодный Ручей» скачать торрент в хорошем качестве
    Лагерь «Холодный Ручей» смотреть онлайн бесплатно в хорошем качестве


    Вы не можете начинать темы
    Вы не можете отвечать на сообщения
    Вы не можете редактировать свои сообщения
    Вы не можете удалять свои сообщения
    Вы не можете голосовать в опросах
    Вы не можете прикреплять файлы к сообщениям
    Вы можете скачивать файлы