Anonymous, доброй ночи, присоединяйтесь к нам в Telegram!, здесь всегда актуальный адрес сайта, оперативная поддержка и многое другое!

>

5.6

iTunes

7.4

MVO

5.7

MVO

1

7.7

1 сезон

6.8

iTunes

7.3

1 сезон

13

6.7

1 сезон

8.3

RePack

30

ULTIMATE

pack

9.9

Лицензия

ВАЖНО

ИГРА 18+

pack

7.3

RePack

MK11

7.7

RePack

jed

7.8

RePack

fifa19

8.5

RePack

RDR2

RePack

NEED FOR SPEED™ PAYBACK

4 сезон

9 сезон

Бесстыжие 9 сезон

Все сериалы

все сериалы на PB.wtf

RePack

FAR CRY 5

Anonymous, доброй ночи, мы катастрофически не успеваем собрать деньги на оплату серверов, помогите нам пожалуйста 5,10,15р., для нас важна любая помощь . В качестве благодарности мы отключим Вам всю рекламу на сайте (укажите свой ник в строку Ваше имя)!

×
  
Magnet ссылка

Тень и кость / Shadow and Bone / Сезон: 1 / Серии: 1-8 из 8 (Ли Толанд Кригер) [2021, фэнтези, боевик, драма, WEB-DLRip - HEVC 1080p 10 bit 60 FPS ,Dub] pb.wtf

Тень и кость через торрент pb.wtf

Раздают: 1 [ 0 KB/s ]
Размер: 13.12 GB | Добавлен: 4 мес. 26 д. назад | Торрент скачан:50 раз
Смотреть онлайн Тень и кость | Скачать    Ребята, помогите собрать деньги на оплату серверов!!!

20-05-2021 07:21 Тень и кость Скачать торрент  

Shadow and Bone


Год выпуска: 2021
Страна: США
Жанр: фэнтези, боевик, драма, детектив, приключения

Продолжительность: 8 x ~00:50:00 серия
Перевод: Дублированный | SDI Media

Режиссер: Ли Толанд Кригер, Майрзи Алмас, Дэн Лью
В ролях: Фредди Картер, Джесси Мей Ли, Арчи Рено, Амита Суман, Кит Янг, Бен Барнс, Саймон Сирс, Джулиан Костов, Даниэль Галлиган, Балаж Медьери

Описание:
В мире, разделенном на две части барьером вечной темноты, где сверхъестественные существа питаются человеческой плотью, девушка-солдат обнаруживает в себе невероятную силу, которая может объединить страну. Но против нее строят заговоры опасные силы. Бандиты, воры, убийцы и святые находятся в состоянии войны, и для выживания потребуется больше, чем магия.

Мировая премьера: 23 апреля 2021


Качество: WeBRip 1080p by DD2D3
Формат: MKV
Видео кодек: V_MPEGH/ISO/HEVC
Аудио кодек: AC3
Видео: V_MPEGH/ISO/HEVC; 1920x872 (2.2:1); 4003 Kbps; 59,940 fps; 0,040 bpp
Аудио: русский; AC3; 640 Kbps; CBR; 6 ch
01. Яркая вспышка света — A Searing Burst of Light
02. Мы все чьи-то чудища — We're All Someone's Monster
03. Творение в сердце мира — The Making at the Heart of the World
04. Отказники — Otkazat'sya
05. Покажи мне, кто ты — Show Me Who You Are
06. Сердце — это стрела — The Heart Is An Arrow
07. Неморе — The Unsea
08. Ни траура — No Mourners


Общее
Уникальный идентификатор : 223789412238219605011381810427854292816 (0xA85C45E512EC855E98508E9068378750)
Полное имя : D:\Shadow and Bone (tv series 2021 ...) WEB-DLRip - HEVC 1080p 10 bit 60 FPS\Season 1. Series 1 - 8 of 8.mkv
Формат : Matroska
Версия формата : Version 4
Размер файла : 1,65 Гбайт
Продолжительность : 50 м. 45 с.
Общий поток : 4 652 Кбит/сек
Название фильма : Rip by from DD2D3
Дата кодирования : UTC 2021-05-20 06:41:57
Программа кодирования : mkvmerge v10.0.0 ('To Drown In You') 32bit
Библиотека кодирования : libebml v1.3.4 + libmatroska v1.4.5
Attachments : poster

Видео
Идентификатор : 1
Формат : HEVC
Формат/Информация : High Efficiency Video Coding
Профиль формата : Main 10@L4.1@Main
Идентификатор кодека : V_MPEGH/ISO/HEVC
Продолжительность : 50 м. 44 с.
Битрейт : 4 003 Кбит/сек
Ширина : 1 920 пикселей
Высота : 872 пикселя
Соотношение сторон : 2,2:1
Режим частоты кадров : Постоянный
Частота кадров : 59,940 (60000/1001) кадров/сек
Цветовое пространство : YUV
Субдискретизация насыщенности : 4:2:0
Битовая глубина : 10 бит
Бит/(Пиксели*Кадры) : 0.040
Размер потока : 1,42 Гбайт (86%)
Библиотека кодирования : x265 2.3+33-0b7d54dbb71a87a0:[Windows][MSVC 1800][64 bit] 10bit: KG7x [x265.ru]
Настройки программы : cpuid=1173503 / frame-threads=2 / numa-pools=4 / wpp / no-pmode / no-pme / no-psnr / no-ssim / log-level=2 / input-csp=1 / input-res=1920x872 / interlace=0 / total-frames=182513 / level-idc=41 / high-tier=1 / uhd-bd=0 / ref=3 / no-allow-non-conformance / no-repeat-headers / annexb / no-aud / no-hrd / info / hash=0 / no-temporal-layers / open-gop / min-keyint=25 / keyint=250 / bframes=4 / b-adapt=2 / b-pyramid / bframe-bias=0 / rc-lookahead=20 / lookahead-slices=5 / scenecut=40 / no-intra-refresh / ctu=64 / min-cu-size=8 / no-rect / no-amp / max-tu-size=32 / tu-inter-depth=1 / tu-intra-depth=1 / limit-tu=0 / rdoq-level=0 / dynamic-rd=0.00 / no-ssim-rd / signhide / no-tskip / nr-intra=0 / nr-inter=0 / no-constrained-intra / strong-intra-smoothing / max-merge=2 / limit-refs=3 / no-limit-modes / me=1 / subme=2 / merange=57 / temporal-mvp / weightp / no-weightb / no-analyze-src-pics / deblock=0:0 / sao / no-sao-non-deblock / rd=3 / no-early-skip / rskip / no-fast-intra / no-tskip-fast / no-cu-lossless / no-b-intra / rdpenalty=0 / psy-rd=2.00 / psy-rdoq=0.00 / no-rd-refine / analysis-mode=0 / no-lossless / cbqpoffs=0 / crqpoffs=0 / rc=abr / bitrate=4000 / qcomp=0.60 / qpstep=4 / stats-write=0 / stats-read=2 / cplxblur=20.0 / qblur=0.5 / ipratio=1.40 / pbratio=1.30 / aq-mode=1 / aq-strength=1.00 / cutree / zone-count=0 / no-strict-cbr / qg-size=32 / no-rc-grain / qpmax=69 / qpmin=0 / sar=1 / overscan=0 / videoformat=5 / range=0 / colorprim=2 / transfer=2 / colormatrix=2 / chromaloc=0 / display-window=0 / max-cll=0,0 / min-luma=0 / max-luma=1023 / log2-max-poc-lsb=8 / vui-timing-info / vui-hrd-info / slices=1 / opt-qp-pps / opt-ref-list-length-pps / no-multi-pass-opt-rps / scenecut-bias=0.05 / no-opt-cu-delta-qp / no-aq-motion / no-hdr / no-hdr-opt / refine-level=5 / no-limit-sao
Default : Да
Forced : Нет

Аудио
Идентификатор : 2
Формат : AC-3
Формат/Информация : Audio Coding 3
Коммерческое название : Dolby Digital
Идентификатор кодека : A_AC3
Продолжительность : 50 м. 45 с.
Вид битрейта : Постоянный
Битрейт : 640 Кбит/сек
Каналы : 6 каналов
Channel layout : L R C LFE Ls Rs
Частота : 48,0 КГц
Частота кадров : 31,250 кадров/сек (1536 SPF)
Метод сжатия : С потерями
Размер потока : 232 Мбайт (14%)
Заголовок : Dub
Язык : Russian
Service kind : Complete Main
Default : Да
Forced : Нет

Текст
Идентификатор : 3
Формат : UTF-8
Идентификатор кодека : S_TEXT/UTF8
Идентификатор кодека/Информация : UTF-8 Plain Text
Продолжительность : 50 м. 23 с.
Битрейт : 79 бит/сек
Count of elements : 590
Размер потока : 29,4 Кбайт (0%)
Язык : Russian
Default : Нет
Forced : Нет


pb.wtf



Скачать Тень и кость через торрент Скачать, смотреть онлайн Тень и кость бесплантно в хорошем качестве Описание: В мире, разделенном на две части барьером вечной темноты, где сверхъестественные существа питаются человеческой плотью, ... 10 10 1
Торрент: Зарегистрирован [2021-05-20 07:22] · скачан: 50 раз
Статус: √ проверено
Размер: 13.12 GB
Как cкачать? Как скачать Тень и кость через торрент | UTorrent

% Раздел Тема Автор DL S | L
Зарубежные сериалы [ 39.93 GB ] Тень и кость / Shadow and Bone / Сезон: 1 / Серии: 1-8 из 8 [2021 WEBRip 1080p] + 4x [MVO] killermax2013 Скачать
1 | 0
Зарубежные сериалы [ 12.04 GB ] Тень и кость / Shadow and Bone / Сезон: 1 / Серии: 1-3 из 8 [2021 WEBRip 1080p] MVO [AlexFilm] bober100 Скачать
1 | 0
Зарубежные сериалы [ 7.48 GB ] Тень и кость / Shadow and Bone / Сезон: 1 / Серии: 1-8 из 8 [2021 WEB-DLRip] DUB [SDI Media] bober100 Скачать
4 | 0
Зарубежные сериалы [ 14.66 GB ] Тень и кость / Shadow and Bone / Сезон: 1 / Серии: 1-8 из 8 [2021 WEB-DL 1080p] killermax2013 Скачать
24 | 9

28-11-2019 20:33  

Отключить всю рекламу на сайте

20-05-2021 16:32 Тень и кость Скачать торрент  

первую серию пытался два раза посмотреть. не получается сразу засыпаю. pb.wtf



    Дорогой пользователь! Огромная просьба, поблагодарите релизера, оцените раздачу и оставьте свои комментарий, если Вы скачали Тень и кость через торрент бесплатно!
    Комментировать посты могут только пользователи прошедшие не сложную регистрацию
    Показать сообщения:    

    Тень и кость через торрент
    Скачать бесплатно Тень и кость
    Тень и кость скачать торрент
    Тень и кость смотреть онлайн
    Cкачать фильм Тень и кость бесплатно
    Тень и кость скачать торрент в хорошем качестве
    Тень и кость смотреть онлайн бесплатно в хорошем качестве


    Вы не можете начинать темы
    Вы не можете отвечать на сообщения
    Вы не можете редактировать свои сообщения
    Вы не можете удалять свои сообщения
    Вы не можете голосовать в опросах
    Вы не можете прикреплять файлы к сообщениям
    Вы можете скачивать файлы