Присоединяйтесь к нам в Telegram!, здесь всегда актуальный адрес сайта, оперативная поддержка и многое другое!!

>

5.9

iTunes

7.4

iTunes

9.4

1 сезон

1

7.4

2 сезон

7.2

iTunes

7.3

1 сезон

13

6.1

iTunes

8.3

GOG

30

ULTIMATE

pack

9.9

Лицензия

ВАЖНО

ИГРА 18+

pack

7.3

RePack

MK11

7.7

RePack

jed

7.8

RePack

fifa19

8.5

RePack

RDR2

RePack

NEED FOR SPEED™ PAYBACK

5 сезон

9 сезон

Бесстыжие 9 сезон

Все сериалы

все сериалы на PB.wtf

RePack

FAR CRY 5

Anonymous, доброй ночи, мы катастрофически не успеваем собрать деньги на оплату серверов, помогите нам пожалуйста 5,10,15р., для нас важна любая помощь . В качестве благодарности мы отключим Вам всю рекламу на сайте (укажите свой ник в строку Ваше имя)!

×
  
Magnet ссылка

Те, кто желает мне смерти / Those Who Wish Me Dead (Тейлор Шеридан) [2021, боевик, триллер, драма, WEB-DLRip-AVC] DUB, MVO [Line, HDRezka Studio] от MediaBit pb.wtf

Те, кто желает мне смерти через торрент pb.wtf

Раздают: 3 [ 0 KB/s ]
Размер: 2.15 GB | Добавлен: 6 мес. назад | Торрент скачан:402 раза
Смотреть онлайн Те, кто желает мне смерти | Скачать    Ребята, помогите собрать деньги на оплату серверов!!!

20-05-2021 16:53 Те, кто желает мне смерти Скачать торрент  


Те, кто желает мне смерти / Those Who Wish Me Dead
Информация о фильме:
Название: Те, кто желает мне смерти
Оригинальное название: Those Who Wish Me Dead
Год выхода: 2021
Жанр: боевик, триллер, драма
Режиссер: Тейлор Шеридан

В ролях: Финн Литтл, Анджелина Джоли, Тайлер Перри, Эйден Гиллен, Джон Бернтал, Николас Холт, Джейк Уэбер, Тори Киттлз, Джеймс Джордан, Лора Каннингэм

Описание: Ханна, спасательница в парашютном отряде, пытается пережить трагический инцидент, унесший жизни троих людей. Отправившись патрулировать удаленный участок леса, Ханна неожиданно встречает до смерти напуганного 12-летнего мальчика, которому не к кому больше обратиться за помощью.



Страна: Канада, США
Студия: Bron Studios, Creative Wealth Media Finance, Film Rites
Продолжительность: 01:39:39
Перевод #1: Дублированный - Line
Перевод #2: Профессиональный (многоголосый, закадровый) - HDRezka Studio



Информация о файле:
Кодек: AVC
Формат: MKV
Качество: WEB-DLRip-AVC
Видео: MPEG-4 AVC, 1024x428, 23.976 fps, 1940kbps
Аудио RU: AC3, 2 ch, 48 kHz, 256 kbps | Line | Tnx.KinoPub
Аудио RU: AC3, 6 ch, 48 kHz, 448 kbps | HDRezka Studio
Аудио EN: AC3, 6 ch, 48 kHz, 384 kbps | ENG
Субтитры: Русские (форсированные (HDRezka))
Навигация по главам: Нет

x264 info: frame I:1135 Avg QP:13.13 size: 76072
x264 info: frame P:36731 Avg QP:16.45 size: 21128
x264 info: frame B:105493 Avg QP:19.99 size: 5562
General
Unique ID : 144913473941093064959091151459823245449 (0x6D0551E3B5D493316E2E41EB4C21D889)
Complete name : D:uTorrentРипы_от_wolf1245_MediaBitThose.Who.Wish.Me.Dead.2021.DUB.MVO.WEB-DLRip-AVC.[wolf1245.MediaBit].mkv
Format : Matroska
Format version : Version 4
File size : 2.15 GiB
Duration : 1 h 39 min
Overall bit rate : 3 093 kb/s
Movie name : Those.Who.Wish.Me.Dead.2021.DUB.MVO.WEB-DLRip-AVC.[wolf1245.MediaBit]
Encoded date : UTC 2021-05-20 16:37:23
Writing application : mkvmerge v56.1.0 ('My Friend') 64-bit
Writing library : libebml v1.4.2 + libmatroska v1.6.4
Video
ID : 1
Format : AVC
Format/Info : Advanced Video Codec
Format profile : High@L4.1
Format settings : CABAC / 14 Ref Frames
Format settings, CABAC : Yes
Format settings, Reference frames : 14 frames
Codec ID : V_MPEG4/ISO/AVC
Duration : 1 h 39 min
Bit rate : 1 940 kb/s
Width : 1 024 pixels
Height : 428 pixels
Display aspect ratio : 2.40:1
Frame rate mode : Constant
Frame rate : 23.976 (24000/1001) FPS
Color space : YUV
Chroma subsampling : 4:2:0
Bit depth : 8 bits
Scan type : Progressive
Bits/(Pixel*Frame) : 0.185
Stream size : 1.35 GiB (63%)
Title : .[wolf1245.MediaBit]
Writing library : x264 core 157 r2958 57baac4
Encoding settings : cabac=1 / ref=14 / deblock=1:-3:-3 / analyse=0x3:0x133 / me=umh / subme=11 / psy=1 / psy_rd=1.02:0.05 / mixed_ref=1 / me_range=48 / chroma_me=1 / trellis=2 / 8x8dct=1 / cqm=0 / deadzone=21,11 / fast_pskip=1 / chroma_qp_offset=-3 / threads=10 / lookahead_threads=2 / sliced_threads=0 / nr=0 / decimate=1 / interlaced=0 / bluray_compat=0 / constrained_intra=0 / bframes=12 / b_pyramid=2 / b_adapt=2 / b_bias=0 / direct=3 / weightb=1 / open_gop=0 / weightp=2 / keyint=240 / keyint_min=24 / scenecut=40 / intra_refresh=0 / rc_lookahead=100 / rc=2pass / mbtree=1 / bitrate=1940 / ratetol=1.0 / qcomp=0.60 / qpmin=0 / qpmax=69 / qpstep=4 / cplxblur=20.0 / qblur=0.5 / vbv_maxrate=50000 / vbv_bufsize=62500 / nal_hrd=none / filler=0 / ip_ratio=1.40 / aq=1:0.80
Language : English
Default : Yes
Forced : No
Color range : Limited
Color primaries : BT.709
Transfer characteristics : BT.709
Matrix coefficients : BT.709
Audio #1
ID : 2
Format : AC-3
Format/Info : Audio Coding 3
Commercial name : Dolby Digital
Codec ID : A_AC3
Duration : 1 h 39 min
Bit rate mode : Constant
Bit rate : 256 kb/s
Channel(s) : 2 channels
Channel layout : L R
Sampling rate : 48.0 kHz
Frame rate : 31.250 FPS (1536 SPF)
Bit depth : 16 bits
Compression mode : Lossy
Stream size : 182 MiB (8%)
Title : DUB (Line) | KinoPub
Language : Russian
Service kind : Complete Main
Default : Yes
Forced : No
Audio #2
ID : 3
Format : AC-3
Format/Info : Audio Coding 3
Commercial name : Dolby Digital
Codec ID : A_AC3
Duration : 1 h 39 min
Bit rate mode : Constant
Bit rate : 448 kb/s
Channel(s) : 6 channels
Channel layout : L R C LFE Ls Rs
Sampling rate : 48.0 kHz
Frame rate : 31.250 FPS (1536 SPF)
Bit depth : 16 bits
Compression mode : Lossy
Stream size : 319 MiB (14%)
Title : [MVO] HDRezka Studio
Language : Russian
Service kind : Complete Main
Default : No
Forced : No
Audio #3
ID : 4
Format : AC-3
Format/Info : Audio Coding 3
Commercial name : Dolby Digital
Codec ID : A_AC3
Duration : 1 h 39 min
Bit rate mode : Constant
Bit rate : 448 kb/s
Channel(s) : 6 channels
Channel layout : L R C LFE Ls Rs
Sampling rate : 48.0 kHz
Frame rate : 31.250 FPS (1536 SPF)
Bit depth : 16 bits
Compression mode : Lossy
Stream size : 319 MiB (14%)
Title : English
Language : English
Service kind : Complete Main
Default : No
Forced : No
Text
ID : 5
Format : UTF-8
Codec ID : S_TEXT/UTF8
Codec ID/Info : UTF-8 Plain Text
Duration : 1 h 30 min
Bit rate : 1 b/s
Count of elements : 17
Stream size : 931 Bytes (0%)
Title : [Forced]
Language : Russian
Default : Yes
Forced : Yes
Релиз от: &
Автор релиза:
pb.wtf



Скачать Те, кто желает мне смерти через торрент https://i114.fastpic.ru/big/2021/0520/50/31c9b43b9a5239b497e3265768feff50.png Скачать, смотреть онлайн Те, кто желает мне смерти бесплантно в хорошем качестве Описание: Ханна, спасательница в парашютном отряде, пытается пережить трагический инцидент, унесший жизни троих людей. Отправившись ... 10 10 10
Торрент: Зарегистрирован [2021-05-20 16:53] · скачан: 402 раз
Статус: T временная
Размер: 2.15 GB
Как cкачать? Как скачать Те, кто желает мне смерти через торрент | UTorrent

28-11-2019 20:33  

Отключить всю рекламу на сайте

20-05-2021 17:32 Те, кто желает мне смерти Скачать торрент  

неплохой, можно позырить!pb.wtf



    Дорогой пользователь! Огромная просьба, поблагодарите релизера, оцените раздачу и оставьте свои комментарий, если Вы скачали Те, кто желает мне смерти через торрент бесплатно!
    Комментировать посты могут только пользователи прошедшие не сложную регистрацию
    Показать сообщения:    

    Те, кто желает мне смерти через торрент
    Скачать бесплатно Те, кто желает мне смерти
    Те, кто желает мне смерти скачать торрент
    Те, кто желает мне смерти смотреть онлайн
    Cкачать фильм Те, кто желает мне смерти бесплатно
    Те, кто желает мне смерти скачать торрент в хорошем качестве
    Те, кто желает мне смерти смотреть онлайн бесплатно в хорошем качестве


    Вы не можете начинать темы
    Вы не можете отвечать на сообщения
    Вы не можете редактировать свои сообщения
    Вы не можете удалять свои сообщения
    Вы не можете голосовать в опросах
    Вы не можете прикреплять файлы к сообщениям
    Вы можете скачивать файлы