Достать ножи: Стеклянная луковица

MVO

Добыча

Дубляж

Уэнсдэй

1 сезон

Тор

Дубляж

13 клиническая

1 сезон

Жестокая ночь

MVO

Одни из нас

1 сезон

Deluxe

pack

Рекомендуем

30

Пиратка

ВАЖНО

ВАЖНО

Ghostwire

Пиратка

jed

RePack

nioh2

RePack

RDR2

RePack

NEED FOR SPEED™ PAYBACK

RePack

скачать торрент

Кинопоиск HD

Острые козырьки 6 сезон

6 сезон

FAR CRY 6

RePack

скачать торрент

Лицензия

скачать торрент

MVO

1

1 сезон

скачать торрент

1 сезон

скачать торрент

Лицензия

  

Бросок кобры / G.I. Joe: The Rise of Cobra (Стивен Соммерс) [2009 г., Фантастика, боевик, приключения, BDRip 720p / 60 FPS, Дубляж] от R.G. HD-Films

Бросок кобры через торрент pb.wtf

Размер: 5.34 GB | Добавлен: 1 год 8 мес. назад | Торрент скачан:154 раза
Смотреть онлайн | Скачать | Поддержите нас   

23-05-2021 15:50 Бросок кобры Скачать торрент  

Бросок кобры / G.I. Joe: The Rise of Cobra
Год выпуска: 2009
Страна: США
Жанр: Фантастика, боевик, приключения
Продолжительность: 01:57:52
Перевод: Дубляж
Субтитры: Russian

Режиссер: Стивен Соммерс

Бюджет: $175 000 000
Премьера в мире: 27 июля 2009

rating

В ролях: Чаннинг Татум, Марлон Уайанс, Рэй Парк, Сиенна Миллер, Рейчел Николс, Джозеф Гордон-Левитт, Деннис Куэйд, Джонатан Прайс, Бён Хон Ли, Каролина Куркова

Описание: Продажа сверх-современного оружия на две стороны редко проходит гладко, особенно, когда разрушительная сила последнего столь велика, что может превратить города в пыль.
Дьюк, Рипкорд и Скарлетт из элитного секретного подразделения получают задание ликвидировать преступную группировку «Кобра», возглавляемую оружейным бароном по имени Дестро. Если они не справятся с возложенной на них миссией, Дестро завладеет технологией, с помощью которой он сможет поставить весь мир на колени...

Качество: BDRip 720p / 60 FPS
Формат: MKV
Видео кодек: H.264
Аудио кодек: AC3
Видео: x264, 1280 x 536 ( 2,40:1 ), 6092 kbps, 60,000 fps, ( 0.148 bpp)
Аудио#1: Русский, AC-3, 48.0 KHz, 6 ch, 384 Kbps
Релиз от: Автор рипа: slaventi-69
Общее
Уникальный идентификатор : 148878049600538109353879558786646719981 (0x7000DE8F9B512682E276B28E622ABDED)
Полное имя : F:\60 FPS\G.I. Joe_The.Rise.of.Cobra.(2009).BDRip.720p.(60 Fps).mkv
Формат : Matroska
Версия формата : Version 4
Размер файла : 5,34 Гбайт
Продолжительность : 1 ч. 57 м.
Общий поток : 6480 Кбит/сек
Название фильма : Бросок кобры / G.I. Joe: The Rise of Cobra (2009) BDRip 720p (60 Fps)
Дата кодирования : UTC 2021-05-23 15:30:01
Программа кодирования : mkvmerge v56.1.0 ('My Friend') 32-bit
Библиотека кодирования : libebml v1.4.2 + libmatroska v1.6.4

Видео
Идентификатор : 1
Формат : AVC
Формат/Информация : Advanced Video Codec
Профиль формата : [email protected]
Настройки формата : CABAC / 9 Ref Frames
Параметр CABAC формата : Да
Параметр RefFrames формата : 9 кадров
Идентификатор кодека : V_MPEG4/ISO/AVC
Продолжительность : 1 ч. 57 м.
Битрейт : 6092 Кбит/сек
Ширина : 1280 пикселей
Высота : 536 пикселей
Соотношение сторон : 2,40:1
Режим частоты кадров : Постоянный
Частота кадров : 60,000 кадров/сек
Цветовое пространство : YUV
Субдискретизация насыщенности : 4:2:0
Битовая глубина : 8 бит
Тип развёртки : Прогрессивная
Бит/(Пиксели*Кадры) : 0.148
Размер потока : 5,02 Гбайт (94%)
Заголовок : slaventi-69 ( R.G. HD-Films | 60 fps )
Библиотека кодирования : x264 core 130 r2273 b3065e6
Настройки программы : cabac=1 / ref=10 / deblock=1:-1:-1 / analyse=0x3:0x133 / me=umh / subme=9 / psy=1 / psy_rd=1.00:0.00 / mixed_ref=1 / me_range=30 / chroma_me=1 / trellis=2 / 8x8dct=1 / cqm=0 / deadzone=21,11 / fast_pskip=0 / chroma_qp_offset=-2 / threads=8 / lookahead_threads=4 / sliced_threads=0 / nr=0 / decimate=1 / interlaced=0 / bluray_compat=0 / constrained_intra=0 / bframes=5 / b_pyramid=1 / b_adapt=2 / b_bias=0 / direct=2 / weightb=1 / open_gop=0 / weightp=2 / keyint=600 / keyint_min=23 / scenecut=40 / intra_refresh=0 / rc=crf / mbtree=0 / crf=17.7 / qcomp=0.60 / qpmin=0 / qpmax=69 / qpstep=4 / ip_ratio=1.40 / pb_ratio=1.30 / aq=1:1.00
Язык : English
Default : Да
Forced : Нет

Аудио
Идентификатор : 2
Формат : AC-3
Формат/Информация : Audio Coding 3
Коммерческое название : Dolby Digital
Идентификатор кодека : A_AC3
Продолжительность : 1 ч. 57 м.
Вид битрейта : Постоянный
Битрейт : 384 Кбит/сек
Каналы : 6 каналов
Channel layout : L R C LFE Ls Rs
Частота : 48,0 КГц
Частота кадров : 31,250 кадров/сек (1536 SPF)
Битовая глубина : 16 бит
Метод сжатия : С потерями
Размер потока : 324 Мбайт (6%)
Заголовок : Дубляж
Язык : Russian
ServiceKind/String : Complete Main
Default : Да
Forced : Нет

Текст
Идентификатор : 3
Формат : UTF-8
Идентификатор кодека : S_TEXT/UTF8
Идентификатор кодека/Информация : UTF-8 Plain Text
Продолжительность : 1 ч. 49 м.
Битрейт : 72 бит/сек
ElementCount : 1007
Размер потока : 57,6 Кбайт (0%)
Default : Нет
Forced : Нет

Просьба к переливающим на другие сайты, в оформлении указывайте пожалуйста авторство группы R.G. HD-Films



Скачать Бросок кобры через торрент http://i65.fastpic.ru/big/2015/0222/b2/085d61ac33148a1c1bc2ba8f974ffeb2.jpg Скачать, смотреть онлайн Бросок кобры бесплантно в хорошем качестве Описание: Продажа сверх-современного оружия на две стороны редко проходит гладко, особенно, когда разрушительная сила последнего столь ... 10 10 7
Info! Золотая раздача, скачанное не засчитывается.
Торрент: Зарегистрирован [2021-05-23 15:50] · скачан: 154 раз
Статус: √ проверено
Размер: 5.34 GB
Как cкачать? Как скачать Бросок кобры через торрент | UTorrent

% Раздел Тема Автор DL S | L
Ultra HD (UHD: 2K, 4K, 8K) [ 45.79 GB ] Бросок кобры / G.I. Joe: The Rise of Cobra | DUB | 2160p sheker187 Скачать
1 | 0
Фильмы [HD 720p, 1080p] (Хороший звук DUB, MVO) [ 6.53 GB ] Бросок кобры / G.I. Joe: The Rise of Cobra | Лицензия | 1080p, Дубляж (Лицензия Мичман37 Скачать
1 | 0
Ultra HD (UHD: 2K, 4K, 8K) [ 63.47 GB ] Бросок кобры | DUB | 2160p sheker187 Скачать
1 | 0
Ultra HD (UHD: 2K, 4K, 8K) [ 50.1 GB ] Бросок кобры / G.I. Joe: The Rise of Cobra | DUB | 2160p sheker187 Скачать
1 | 0
Ultra HD (UHD: 2K, 4K, 8K) [ 53.34 GB ] Бросок кобры / G.I. Joe: The Rise of Cobra | Дубляж | 2160p sheker187 Скачать
1 | 0
Ultra HD (UHD: 2K, 4K, 8K) [ 60.81 GB ] Бросок кобры / G.I. Joe: The Rise of Cobra | Дубляж | 2160p sheker187 Скачать
1 | 0
Фильмы [HD 720p, 1080p] (Хороший звук DUB, MVO) [ 15.22 GB ] Бросок кобры / G.I. Joe: The Rise of Cobra | | 1080p PoBeP37 Скачать
1 | 0

28-11-2019 20:33  


Отключить вcю реклaмy на сайте, в т.ч. и в плеере онлайн просмотра!

08-06-2021 10:15 Бросок кобры Скачать торрент  

Раздача стала золотой благодаря:
Chuvackk(5000)


Спасибо за Золото, смотрите в удовольствие.



    Дорогой пользователь! Огромная просьба, поблагодарите релизера, оцените раздачу и оставьте свои комментарий, если Вы скачали Бросок кобры через торрент бесплатно!!
    Комментировать посты могут только пользователи прошедшие не сложную регистрацию
    Показать сообщения:    


    Бросок кобры через торрент
    Скачать бесплатно Бросок кобры
    Бросок кобры скачать торрент
    Бросок кобры смотреть онлайн
    Cкачать фильм Бросок кобры бесплатно
    Бросок кобры скачать торрент в хорошем качестве
    Бросок кобры смотреть онлайн бесплатно в хорошем качестве
    Вы не можете начинать темы
    Вы не можете отвечать на сообщения
    Вы не можете редактировать свои сообщения
    Вы не можете удалять свои сообщения
    Вы не можете голосовать в опросах
    Вы не можете прикреплять файлы к сообщениям
    Вы можете скачивать файлы
    Бросок кобры / G.I. Joe: The Rise of Cobra [2009 г., Фантастика, боевик, приключения, BDRip 720p / 60 FPS, Дубляж] от R.G. HD-Films смотреть онлайн, скачать торрент picoco.icu