Присоединяйтесь к нам в Telegram!, здесь всегда актуальный адрес сайта, оперативная поддержка и многое другое!!

>

5.9

iTunes

7.4

iTunes

9.4

1 сезон

1

7.4

2 сезон

7.2

iTunes

7.3

1 сезон

13

6.1

iTunes

8.3

GOG

30

ULTIMATE

pack

9.9

Лицензия

ВАЖНО

ИГРА 18+

pack

7.3

RePack

MK11

7.7

RePack

jed

7.8

RePack

fifa19

8.5

RePack

RDR2

RePack

NEED FOR SPEED™ PAYBACK

5 сезон

9 сезон

Бесстыжие 9 сезон

Все сериалы

все сериалы на PB.wtf

RePack

FAR CRY 5

Anonymous, доброй ночи, мы катастрофически не успеваем собрать деньги на оплату серверов, помогите нам пожалуйста 5,10,15р., для нас важна любая помощь . В качестве благодарности мы отключим Вам всю рекламу на сайте (укажите свой ник в строку Ваше имя)!

×
  
Magnet ссылка

Ферри / Ferry (Сесилия Верхейден) [2021, Боевик, криминал, драма, WEB-DLRip-AVC] MVO [HDRezka Studio] от MediaBit pb.wtf

Ферри через торрент pb.wtf

Размер: 744 MB | Добавлен: 6 мес. назад | Торрент скачан:88 раз
Смотреть онлайн Ферри | Скачать    Ребята, помогите собрать деньги на оплату серверов!!!

23-05-2021 17:38 Ферри Скачать торрент  


Ферри / Ferry
Информация о фильме:
Название: Ферри
Оригинальное название: Ferry
Год выхода: 2021
Жанр: Боевик, криминал, драма
Режиссер: Сесилия Верхейден

В ролях: Фрэнк Ламмерс, Элиза Шаап, Хуб Стапель, Раймонд Тири, Моник Хендрикс

Описание: Перед построением криминальной империи Ферри Боуман возвращается в родной город, чтобы отомстить. Там его ждет проверка на верность и любовь, которая изменит его жизнь.



Страна: Бельгия, Нидерланды
Студия: deMENSEN
Продолжительность: 01:46:58
Перевод: Профессиональный (многоголосый, закадровый) - HDRezka Studio



Информация о файле:
Кодек: AVC
Формат: MKV
Качество: WEB-DLRip-AVC
Видео: MPEG-4 AVC, 720x302, 25.000 fps, 875 kbps
Аудио RU: AAC-HE, 2 ch, 48 kHz, 96 kbps | uncensored |
Субтитры: Русские (Forced, full), украинские (Full), английские

x264 info: frame I:1306 Avg QP:14.11 size: 38586
x264 info: frame P:34032 Avg QP:18.07 size: 11212
x264 info: frame B:125121 Avg QP:21.46 size: 2057
General
Unique ID : 207328869615680234740984301167241822238 (0x9BFA167C37312F1EFD942F4FECC3801E)
Complete name : D:uTorrentРипы_от_wolf1245_MediaBitFerry.2021.MVO.HDrezka.WEB-DLRip-AVC.[wolf1245.MediaBit].mkv
Format : Matroska
Format version : Version 4
File size : 744 MiB
Duration : 1 h 47 min
Overall bit rate : 973 kb/s
Movie name : Ferry.2021.MVO.HDrezka.WEB-DLRip-AVC.[wolf1245.MediaBit]
Encoded date : UTC 2021-05-23 17:26:41
Writing application : mkvmerge v57.0.0 ('Till The End') 64-bit
Writing library : libebml v1.4.2 + libmatroska v1.6.4
Video
ID : 1
Format : AVC
Format/Info : Advanced Video Codec
Format profile : High@L4.1
Format settings : CABAC / 12 Ref Frames
Format settings, CABAC : Yes
Format settings, Reference frames : 12 frames
Codec ID : V_MPEG4/ISO/AVC
Duration : 1 h 46 min
Bit rate : 875 kb/s
Width : 720 pixels
Height : 302 pixels
Display aspect ratio : 2.40:1
Frame rate mode : Constant
Frame rate : 25.000 FPS
Color space : YUV
Chroma subsampling : 4:2:0
Bit depth : 8 bits
Scan type : Progressive
Bits/(Pixel*Frame) : 0.161
Stream size : 669 MiB (90%)
Title : WEB-DLRip-AVC.[wolf1245.MediaBit]
Writing library : x264 core 157 r2958 57baac4
Encoding settings : cabac=1 / ref=12 / deblock=1:0:0 / analyse=0x3:0x133 / me=umh / subme=10 / psy=1 / psy_rd=0.97:0.05 / mixed_ref=1 / me_range=32 / chroma_me=1 / trellis=2 / 8x8dct=1 / cqm=0 / deadzone=21,11 / fast_pskip=1 / chroma_qp_offset=-3 / threads=10 / lookahead_threads=2 / sliced_threads=0 / nr=0 / decimate=1 / interlaced=0 / bluray_compat=0 / constrained_intra=0 / bframes=10 / b_pyramid=2 / b_adapt=2 / b_bias=0 / direct=3 / weightb=1 / open_gop=0 / weightp=2 / keyint=250 / keyint_min=25 / scenecut=40 / intra_refresh=0 / rc_lookahead=60 / rc=2pass / mbtree=1 / bitrate=875 / ratetol=1.0 / qcomp=0.60 / qpmin=0 / qpmax=69 / qpstep=4 / cplxblur=20.0 / qblur=0.5 / vbv_maxrate=50000 / vbv_bufsize=62500 / nal_hrd=none / filler=0 / ip_ratio=1.40 / aq=1:0.80
Language : English
Default : Yes
Forced : No
Audio
ID : 2
Format : AAC LC SBR
Format/Info : Advanced Audio Codec Low Complexity with Spectral Band Replication
Commercial name : HE-AAC
Format settings : Implicit
Codec ID : A_AAC-2
Duration : 1 h 47 min
Bit rate : 96.0 kb/s
Channel(s) : 2 channels
Channel layout : L R
Sampling rate : 48.0 kHz
Frame rate : 23.438 FPS (2048 SPF)
Compression mode : Lossy
Stream size : 73.5 MiB (10%)
Title : MVO (HDRezka Studio) | uncensored
Language : Russian
Default : Yes
Forced : No
Text #1
ID : 3
Format : UTF-8
Codec ID : S_TEXT/UTF8
Codec ID/Info : UTF-8 Plain Text
Duration : 1 h 12 min
Bit rate : 1 b/s
Count of elements : 11
Stream size : 607 Bytes (0%)
Title : Forced
Language : Russian
Default : Yes
Forced : No
Text #2
ID : 4
Format : UTF-8
Codec ID : S_TEXT/UTF8
Codec ID/Info : UTF-8 Plain Text
Duration : 1 h 45 min
Bit rate : 66 b/s
Count of elements : 1112
Stream size : 51.4 KiB (0%)
Title : Full
Language : Russian
Default : No
Forced : No
Text #3
ID : 5
Format : UTF-8
Codec ID : S_TEXT/UTF8
Codec ID/Info : UTF-8 Plain Text
Duration : 1 h 45 min
Bit rate : 63 b/s
Count of elements : 1115
Stream size : 48.9 KiB (0%)
Title : Full
Language : Ukrainian
Default : No
Forced : No
Text #4
ID : 6
Format : UTF-8
Codec ID : S_TEXT/UTF8
Codec ID/Info : UTF-8 Plain Text
Duration : 1 h 45 min
Bit rate : 49 b/s
Count of elements : 1410
Stream size : 38.3 KiB (0%)
Title : English [CC]
Language : English
Default : No
Forced : No
Text #5
ID : 7
Format : UTF-8
Codec ID : S_TEXT/UTF8
Codec ID/Info : UTF-8 Plain Text
Duration : 1 h 45 min
Bit rate : 41 b/s
Count of elements : 1178
Stream size : 32.2 KiB (0%)
Title : English
Language : English
Default : No
Forced : No
Релиз от: &
Автор релиза:
pb.wtf



Скачать Ферри через торрент https://i114.fastpic.ru/big/2021/0523/74/b535e85c7690f77e8f612f7d0989cc74.png Скачать, смотреть онлайн Ферри бесплантно в хорошем качестве Описание: Перед построением криминальной империи Ферри Боуман возвращается в родной город, чтобы отомстить. Там его ждет проверка на ... 9.6 10 7
Торрент: Зарегистрирован [2021-05-23 17:38] · скачан: 88 раз
Статус: √ проверено
Размер: 744 MB
Как cкачать? Как скачать Ферри через торрент | UTorrent

28-11-2019 20:33  

Отключить всю рекламу на сайте

03-07-2021 07:36 Ферри Скачать торрент  

Нормpb.wtf



    Дорогой пользователь! Огромная просьба, поблагодарите релизера, оцените раздачу и оставьте свои комментарий, если Вы скачали Ферри через торрент бесплатно!
    Комментировать посты могут только пользователи прошедшие не сложную регистрацию
    Показать сообщения:    

    Ферри через торрент
    Скачать бесплатно Ферри
    Ферри скачать торрент
    Ферри смотреть онлайн
    Cкачать фильм Ферри бесплатно
    Ферри скачать торрент в хорошем качестве
    Ферри смотреть онлайн бесплатно в хорошем качестве


    Вы не можете начинать темы
    Вы не можете отвечать на сообщения
    Вы не можете редактировать свои сообщения
    Вы не можете удалять свои сообщения
    Вы не можете голосовать в опросах
    Вы не можете прикреплять файлы к сообщениям
    Вы можете скачивать файлы