Anonymous, доброй ночи, присоединяйтесь к нам в Telegram!, здесь всегда актуальный адрес сайта, оперативная поддержка и многое другое!

>

5.5

iTunes

7.4

iTunes

7.9

iTunes

1

7.7

1 сезон

6.8

iTunes

7.3

1 сезон

13

6.7

1 сезон

8.3

RePack

30

ULTIMATE

pack

9.9

Лицензия

ВАЖНО

ИГРА 18+

pack

7.3

RePack

MK11

7.7

RePack

jed

7.8

RePack

fifa19

8.5

RePack

RDR2

RePack

NEED FOR SPEED™ PAYBACK

4 сезон

9 сезон

Бесстыжие 9 сезон

Все сериалы

все сериалы на PB.wtf

RePack

FAR CRY 5

Anonymous, доброй ночи, мы катастрофически не успеваем собрать деньги на оплату серверов, помогите нам пожалуйста 5,10,15р., для нас важна любая помощь . В качестве благодарности мы отключим Вам всю рекламу на сайте (укажите свой ник в строку Ваше имя)!

×
  
Magnet ссылка

Мистериум: Антология / Mysterium: Anthology (Миккель Нёргор, Ганс Петтер Моланд, Кристоффер Боэ) [2013-2018, триллер, криминал, детектив, BDRip - HEVC 1080p 10 bit 60 FPS, MVO] pb.wtf

Мистериум: Антология через торрент pb.wtf

Раздают: 4 [ 0 KB/s ] Качают: 1 [ 0 KB/s ]
Размер: 12.48 GB | Добавлен: 5 мес. 4 д. назад | Торрент скачан:32 раза
Смотреть онлайн Мистериум: Антология | Скачать    Ребята, помогите собрать деньги на оплату серверов!!!

24-05-2021 17:40 Мистериум: Антология Скачать торрент  

Misterium

Детективный триллер впервые появился на экранах в Германии в 2013 году, а чуть позже его увидел и весь остальной мир. Франшиза была снята на основе одноименного романа Юсси Адлера-Ольсена — датского писателя. Произведение описывало будни Карла Мерка и его напарника Ассада, которые пытались раскрыть уголовные дела, пылившиеся на полках много лет.

Kvinden i Buret
«Intet er glemt for altid»


Год выпуска: 2013
Страна: Дания, Германия, Швеция, Норвегия
Жанр: Триллер, криминал, детектив

Продолжительность: 01:36:31
Перевод: Профессиональный многоголосый | [Позитив по заказу Русского Репортажа]
Субтитры: нет


Режиссер: Миккель Нёргор
В ролях: Николай Ли Каас, Фарес Фарес, Пер Шил Крюгер, Троэльс Любю, Ойвинд Б. Фабрициус Холм, Сёрен Пильмарк, Дивья Дас, Анна Берског Хаугер, Соня Рихтер, Расмус Ботофт

Описание:
Детективы Карл Мерке и Аса работают в Департаменте Q, занимающемся «глухарями». Взявшись за дело пятилетней давности об исчезновении женщины по имени Мерет, они внезапно выходят на след маньяка-психопата. Но преследуя его по всей стране, всё равно на шаг отстают.

Мировая премьера: 10 августа 2013


Качество: BDRip 1080p by DD2D3
Формат: MKV
Видео кодек: V_MPEGH/ISO/HEVC
Аудио кодек: AC3
Видео: V_MPEGH/ISO/HEVC; 1920x800 (2.40:1); 3708 Kbps; 60 fps; 0,040 bpp
Аудио: русский; AC3; 224 Kbps; CBR; 2 ch
Навигация по главам: есть



Общее
Уникальный идентификатор : 238000922685970558312856345310810234411 (0xB30D4F75040EE839A34427AC7C8A5E2B)
Полное имя : D:\Misterium (2013 - ......) BDRip - HEVC 1080p 10 bit 60 FPS\Kvinden i Buret (2013) BDRip - HEVC 1080p 10 bit 60 FPS.mkv
Формат : Matroska
Версия формата : Version 4
Размер файла : 2,66 Гбайт
Продолжительность : 1 ч. 36 м.
Общий поток : 3 939 Кбит/сек
Название фильма : Rip by from DD2D3
Дата кодирования : UTC 2021-05-24 15:30:01
Программа кодирования : mkvmerge v10.0.0 ('To Drown In You') 32bit
Библиотека кодирования : libebml v1.3.4 + libmatroska v1.4.5
Attachments : poster

Видео
Идентификатор : 1
Формат : HEVC
Формат/Информация : High Efficiency Video Coding
Профиль формата : Main 10@L4.1@Main
Идентификатор кодека : V_MPEGH/ISO/HEVC
Продолжительность : 1 ч. 36 м.
Битрейт : 3 709 Кбит/сек
Ширина : 1 920 пикселей
Высота : 800 пикселей
Соотношение сторон : 2,40:1
Режим частоты кадров : Постоянный
Частота кадров : 60,000 кадров/сек
Цветовое пространство : YUV
Субдискретизация насыщенности : 4:2:0
Битовая глубина : 10 бит
Бит/(Пиксели*Кадры) : 0.040
Размер потока : 2,50 Гбайт (94%)
Библиотека кодирования : x265 2.3+33-0b7d54dbb71a87a0:[Windows][MSVC 1800][64 bit] 10bit: KG7x [x265.ru]
Настройки программы : cpuid=1173503 / frame-threads=2 / numa-pools=4 / wpp / no-pmode / no-pme / no-psnr / no-ssim / log-level=2 / input-csp=1 / input-res=1920x800 / interlace=0 / total-frames=347471 / level-idc=41 / high-tier=1 / uhd-bd=0 / ref=3 / no-allow-non-conformance / no-repeat-headers / annexb / no-aud / no-hrd / info / hash=0 / no-temporal-layers / open-gop / min-keyint=25 / keyint=250 / bframes=4 / b-adapt=2 / b-pyramid / bframe-bias=0 / rc-lookahead=20 / lookahead-slices=5 / scenecut=40 / no-intra-refresh / ctu=64 / min-cu-size=8 / no-rect / no-amp / max-tu-size=32 / tu-inter-depth=1 / tu-intra-depth=1 / limit-tu=0 / rdoq-level=0 / dynamic-rd=0.00 / no-ssim-rd / signhide / no-tskip / nr-intra=0 / nr-inter=0 / no-constrained-intra / strong-intra-smoothing / max-merge=2 / limit-refs=3 / no-limit-modes / me=1 / subme=2 / merange=57 / temporal-mvp / weightp / no-weightb / no-analyze-src-pics / deblock=0:0 / sao / no-sao-non-deblock / rd=3 / no-early-skip / rskip / no-fast-intra / no-tskip-fast / no-cu-lossless / no-b-intra / rdpenalty=0 / psy-rd=2.00 / psy-rdoq=0.00 / no-rd-refine / analysis-mode=0 / no-lossless / cbqpoffs=0 / crqpoffs=0 / rc=abr / bitrate=3700 / qcomp=0.60 / qpstep=4 / stats-write=0 / stats-read=2 / cplxblur=20.0 / qblur=0.5 / ipratio=1.40 / pbratio=1.30 / aq-mode=1 / aq-strength=1.00 / cutree / zone-count=0 / no-strict-cbr / qg-size=32 / no-rc-grain / qpmax=69 / qpmin=0 / sar=1 / overscan=0 / videoformat=5 / range=0 / colorprim=2 / transfer=2 / colormatrix=2 / chromaloc=0 / display-window=0 / max-cll=0,0 / min-luma=0 / max-luma=1023 / log2-max-poc-lsb=8 / vui-timing-info / vui-hrd-info / slices=1 / opt-qp-pps / opt-ref-list-length-pps / no-multi-pass-opt-rps / scenecut-bias=0.05 / no-opt-cu-delta-qp / no-aq-motion / no-hdr / no-hdr-opt / refine-level=5 / no-limit-sao
Default : Да
Forced : Нет

Аудио
Идентификатор : 2
Формат : AC-3
Формат/Информация : Audio Coding 3
Коммерческое название : Dolby Digital
Идентификатор кодека : A_AC3
Продолжительность : 1 ч. 36 м.
Вид битрейта : Постоянный
Битрейт : 224 Кбит/сек
Каналы : 2 канала
Channel layout : L R
Частота : 48,0 КГц
Частота кадров : 31,250 кадров/сек (1536 SPF)
Метод сжатия : С потерями
Размер потока : 155 Мбайт (6%)
Заголовок : MVO Позитив
Язык : Russian
Service kind : Complete Main
Default : Да
Forced : Нет

Меню
00:00:00.000 : en:00:00:00.000
00:10:00.000 : en:00:10:00.000
00:19:59.542 : en:00:19:59.542
00:29:59.708 : en:00:29:59.708
00:39:59.750 : en:00:39:59.750
00:49:59.833 : en:00:49:59.833
00:59:59.625 : en:00:59:59.625
01:09:59.667 : en:01:09:59.667
01:19:59.708 : en:01:19:59.708
01:29:59.750 : en:01:29:59.750


скриншот   скриншот   скриншот   скриншот  




Fasandræberne


Год выпуска: 2014
Страна: Дания, Германия, Швеция, Норвегия
Жанр: Триллер, криминал, детектив

Продолжительность: 01:59:41
Перевод: Профессиональный многоголосый | [Позитив по заказу Русского Репортажа]
Субтитры: русские


Режиссер: Миккель Нёргор
В ролях: Николай Ли Каас, Фарес Фарес, Йохан Филип Асбек, Давид Денсик, Даница Чурчич, Сара-Софи Бусснина, Джохэнн Луиз Шмидт, Марко Ильсё, Беате Билле, Питер Кристофферсен

Описание:
В 1994 году двое детей-близнецов были найдены зверски убитыми в летнем загородном доме. Ряд фактов указывал на причастность к делу группы студентов, но расследование было прекращено после того, как местный отшельник признал себя виновным в этом инциденте. 20 лет спустя это дело попадает на стол Карла Мёрка, который начинает подозревать, что в нём что-то не так.

Мировая премьера: 18 сентября 2014


Качество: BDRip 1080p by DD2D3
Формат: MKV
Видео кодек: V_MPEGH/ISO/HEVC
Аудио кодек: AC3
Видео: V_MPEGH/ISO/HEVC; 1920x816 (2.35:1); 3806 Kbps; 60 fps; 0,040 bpp
Аудио: русский; AC3; 192 Kbps; CBR; 2 ch
Навигация по главам: есть



Общее
Уникальный идентификатор : 250707846599489283098591703810166415977 (0xBC9C932D08200AA38952B0C7095EE269)
Полное имя : D:\Misterium (2013 - ......) BDRip - HEVC 1080p 10 bit 60 FPS\Fasandræberne (2014) BDRip - HEVC 1080p 10 bit 60 FPS.mkv
Формат : Matroska
Версия формата : Version 4
Размер файла : 3,35 Гбайт
Продолжительность : 1 ч. 59 м.
Общий поток : 4 004 Кбит/сек
Название фильма : Rip by from DD2D3
Дата кодирования : UTC 2021-05-24 15:48:14
Программа кодирования : mkvmerge v10.0.0 ('To Drown In You') 32bit
Библиотека кодирования : libebml v1.3.4 + libmatroska v1.4.5
Attachments : poster

Видео
Идентификатор : 1
Формат : HEVC
Формат/Информация : High Efficiency Video Coding
Профиль формата : Main 10@L4.1@Main
Идентификатор кодека : V_MPEGH/ISO/HEVC
Продолжительность : 1 ч. 59 м.
Битрейт : 3 806 Кбит/сек
Ширина : 1 920 пикселей
Высота : 816 пикселей
Соотношение сторон : 2,35:1
Режим частоты кадров : Постоянный
Частота кадров : 60,000 кадров/сек
Цветовое пространство : YUV
Субдискретизация насыщенности : 4:2:0
Битовая глубина : 10 бит
Бит/(Пиксели*Кадры) : 0.040
Размер потока : 3,18 Гбайт (95%)
Библиотека кодирования : x265 2.3+33-0b7d54dbb71a87a0:[Windows][MSVC 1800][64 bit] 10bit: KG7x [x265.ru]
Настройки программы : cpuid=1173503 / frame-threads=2 / numa-pools=4 / wpp / no-pmode / no-pme / no-psnr / no-ssim / log-level=2 / input-csp=1 / input-res=1920x816 / interlace=0 / total-frames=430878 / level-idc=41 / high-tier=1 / uhd-bd=0 / ref=3 / no-allow-non-conformance / no-repeat-headers / annexb / no-aud / no-hrd / info / hash=0 / no-temporal-layers / open-gop / min-keyint=25 / keyint=250 / bframes=4 / b-adapt=2 / b-pyramid / bframe-bias=0 / rc-lookahead=20 / lookahead-slices=5 / scenecut=40 / no-intra-refresh / ctu=64 / min-cu-size=8 / no-rect / no-amp / max-tu-size=32 / tu-inter-depth=1 / tu-intra-depth=1 / limit-tu=0 / rdoq-level=0 / dynamic-rd=0.00 / no-ssim-rd / signhide / no-tskip / nr-intra=0 / nr-inter=0 / no-constrained-intra / strong-intra-smoothing / max-merge=2 / limit-refs=3 / no-limit-modes / me=1 / subme=2 / merange=57 / temporal-mvp / weightp / no-weightb / no-analyze-src-pics / deblock=0:0 / sao / no-sao-non-deblock / rd=3 / no-early-skip / rskip / no-fast-intra / no-tskip-fast / no-cu-lossless / no-b-intra / rdpenalty=0 / psy-rd=2.00 / psy-rdoq=0.00 / no-rd-refine / analysis-mode=0 / no-lossless / cbqpoffs=0 / crqpoffs=0 / rc=abr / bitrate=3800 / qcomp=0.60 / qpstep=4 / stats-write=0 / stats-read=2 / cplxblur=20.0 / qblur=0.5 / ipratio=1.40 / pbratio=1.30 / aq-mode=1 / aq-strength=1.00 / cutree / zone-count=0 / no-strict-cbr / qg-size=32 / no-rc-grain / qpmax=69 / qpmin=0 / sar=1 / overscan=0 / videoformat=5 / range=0 / colorprim=2 / transfer=2 / colormatrix=2 / chromaloc=0 / display-window=0 / max-cll=0,0 / min-luma=0 / max-luma=1023 / log2-max-poc-lsb=8 / vui-timing-info / vui-hrd-info / slices=1 / opt-qp-pps / opt-ref-list-length-pps / no-multi-pass-opt-rps / scenecut-bias=0.05 / no-opt-cu-delta-qp / no-aq-motion / no-hdr / no-hdr-opt / refine-level=5 / no-limit-sao
Default : Да
Forced : Нет

Аудио
Идентификатор : 2
Формат : AC-3
Формат/Информация : Audio Coding 3
Коммерческое название : Dolby Digital
Идентификатор кодека : A_AC3
Продолжительность : 1 ч. 59 м.
Вид битрейта : Постоянный
Битрейт : 192 Кбит/сек
Каналы : 2 канала
Channel layout : L R
Частота : 48,0 КГц
Частота кадров : 31,250 кадров/сек (1536 SPF)
Метод сжатия : С потерями
Размер потока : 164 Мбайт (5%)
Заголовок : MVO | Позитив
Язык : Russian
Service kind : Complete Main
Default : Да
Forced : Нет

Текст
Идентификатор : 3
Формат : UTF-8
Идентификатор кодека : S_TEXT/UTF8
Идентификатор кодека/Информация : UTF-8 Plain Text
Продолжительность : 1 ч. 54 м.
Битрейт : 46 бит/сек
Count of elements : 822
Размер потока : 39,1 Кбайт (0%)
Заголовок : Full
Язык : Russian
Default : Нет
Forced : Нет

Меню
00:00:00.000 : en:Chapter 01
00:10:00.000 : en:Chapter 02
00:19:59.625 : en:Chapter 03
00:29:59.790 : en:Chapter 04
00:39:59.625 : en:Chapter 05
00:49:59.791 : en:Chapter 06
00:59:59.583 : en:Chapter 07
01:09:59.916 : en:Chapter 08
01:20:00.000 : en:Chapter 09
01:30:00.000 : en:Chapter 10
01:39:59.541 : en:Chapter 11
01:49:59.791 : en:Chapter 12
01:59:40.416 : en:Chapter 13


скриншот   скриншот   скриншот   скриншот  




Flaskepost fra P


Год выпуска: 2016
Страна: Дания, Германия, Швеция, Норвегия
Жанр: Триллер, криминал, детектив

Продолжительность: 01:51:31
Перевод: Профессиональный многоголосый | [GreenРай]
Субтитры: русские


Режиссер: Ганс Петтер Моланд
В ролях: Николай Ли Каас, Фарес Фарес, Пол Сверре Валхейм Хаген, Якоб Ульрик Ломанн, Джохэнн Луиз Шмидт, Якоб Офтебро, Сигне Анастассиа Маннов, Сёрен Пильмарк, Михаэль Броструп, Якоб Хёйлев Ёргенсон

Описание:
Выброшенная на берег моря бутылка с леденящим душу посланием, написанным восемь лет назад, привлекает внимание особого отдела полиции Копенгагена. За расследование берутся комиссар Карл Мёрк и его помощник. Они выходят на след убийцы-психопата и раскрывают жуткую историю похищенных детей, об исчезновении которых никто не заявлял.

Мировая премьера: 3 марта 2016


Качество: BDRip 1080p by DD2D3
Формат: MKV
Видео кодек: V_MPEGH/ISO/HEVC
Аудио кодек: AC3
Видео: V_MPEGH/ISO/HEVC; 1920x816 (2.35:1); 3805 Kbps; 60 fps; 0,040 bpp
Аудио: русский; AC3; 384 Kbps; CBR; 6 ch
Навигация по главам: есть



Общее
Уникальный идентификатор : 174808717764883730850678580458720912830 (0x8382EF35626DDAF6B05A4EFF8ADCE5BE)
Полное имя : D:\Misterium (2013 - ......) BDRip - HEVC 1080p 10 bit 60 FPS\Flaskepost fra P (2016) BDRip - HEVC 1080p 10 bit 60 FPS.mkv
Формат : Matroska
Версия формата : Version 4
Размер файла : 3,27 Гбайт
Продолжительность : 1 ч. 51 м.
Общий поток : 4 193 Кбит/сек
Название фильма : Rip by from DD2D3
Дата кодирования : UTC 2021-05-24 15:53:24
Программа кодирования : mkvmerge v10.0.0 ('To Drown In You') 32bit
Библиотека кодирования : libebml v1.3.4 + libmatroska v1.4.5
Attachments : poster

Видео
Идентификатор : 1
Формат : HEVC
Формат/Информация : High Efficiency Video Coding
Профиль формата : Main 10@L4.1@Main
Идентификатор кодека : V_MPEGH/ISO/HEVC
Продолжительность : 1 ч. 51 м.
Битрейт : 3 805 Кбит/сек
Ширина : 1 920 пикселей
Высота : 816 пикселей
Соотношение сторон : 2,35:1
Режим частоты кадров : Постоянный
Частота кадров : 60,000 кадров/сек
Цветовое пространство : YUV
Субдискретизация насыщенности : 4:2:0
Битовая глубина : 10 бит
Бит/(Пиксели*Кадры) : 0.040
Размер потока : 2,96 Гбайт (91%)
Библиотека кодирования : x265 2.3+33-0b7d54dbb71a87a0:[Windows][MSVC 1800][64 bit] 10bit: KG7x [x265.ru]
Настройки программы : cpuid=1173503 / frame-threads=2 / numa-pools=4 / wpp / no-pmode / no-pme / no-psnr / no-ssim / log-level=2 / input-csp=1 / input-res=1920x816 / interlace=0 / total-frames=401296 / level-idc=41 / high-tier=1 / uhd-bd=0 / ref=3 / no-allow-non-conformance / no-repeat-headers / annexb / no-aud / no-hrd / info / hash=0 / no-temporal-layers / open-gop / min-keyint=25 / keyint=250 / bframes=4 / b-adapt=2 / b-pyramid / bframe-bias=0 / rc-lookahead=20 / lookahead-slices=5 / scenecut=40 / no-intra-refresh / ctu=64 / min-cu-size=8 / no-rect / no-amp / max-tu-size=32 / tu-inter-depth=1 / tu-intra-depth=1 / limit-tu=0 / rdoq-level=0 / dynamic-rd=0.00 / no-ssim-rd / signhide / no-tskip / nr-intra=0 / nr-inter=0 / no-constrained-intra / strong-intra-smoothing / max-merge=2 / limit-refs=3 / no-limit-modes / me=1 / subme=2 / merange=57 / temporal-mvp / weightp / no-weightb / no-analyze-src-pics / deblock=0:0 / sao / no-sao-non-deblock / rd=3 / no-early-skip / rskip / no-fast-intra / no-tskip-fast / no-cu-lossless / no-b-intra / rdpenalty=0 / psy-rd=2.00 / psy-rdoq=0.00 / no-rd-refine / analysis-mode=0 / no-lossless / cbqpoffs=0 / crqpoffs=0 / rc=abr / bitrate=3800 / qcomp=0.60 / qpstep=4 / stats-write=0 / stats-read=2 / cplxblur=20.0 / qblur=0.5 / ipratio=1.40 / pbratio=1.30 / aq-mode=1 / aq-strength=1.00 / cutree / zone-count=0 / no-strict-cbr / qg-size=32 / no-rc-grain / qpmax=69 / qpmin=0 / sar=1 / overscan=0 / videoformat=5 / range=0 / colorprim=2 / transfer=2 / colormatrix=2 / chromaloc=0 / display-window=0 / max-cll=0,0 / min-luma=0 / max-luma=1023 / log2-max-poc-lsb=8 / vui-timing-info / vui-hrd-info / slices=1 / opt-qp-pps / opt-ref-list-length-pps / no-multi-pass-opt-rps / scenecut-bias=0.05 / no-opt-cu-delta-qp / no-aq-motion / no-hdr / no-hdr-opt / refine-level=5 / no-limit-sao
Default : Да
Forced : Нет

Аудио
Идентификатор : 2
Формат : AC-3
Формат/Информация : Audio Coding 3
Коммерческое название : Dolby Digital
Идентификатор кодека : A_AC3
Продолжительность : 1 ч. 51 м.
Вид битрейта : Постоянный
Битрейт : 384 Кбит/сек
Каналы : 6 каналов
Channel layout : L R C LFE Ls Rs
Частота : 48,0 КГц
Частота кадров : 31,250 кадров/сек (1536 SPF)
Метод сжатия : С потерями
Задержка видео : 8 мс.
Размер потока : 306 Мбайт (9%)
Заголовок : MVO [GreenРай]
Язык : Russian
Service kind : Complete Main
Default : Да
Forced : Нет

Текст
Идентификатор : 3
Формат : UTF-8
Идентификатор кодека : S_TEXT/UTF8
Идентификатор кодека/Информация : UTF-8 Plain Text
Продолжительность : 1 ч. 46 м.
Битрейт : 69 бит/сек
Count of elements : 1212
Размер потока : 54,1 Кбайт (0%)
Заголовок : [Grabomir]
Язык : Russian
Default : Нет
Forced : Нет

Меню
00:00:00.000 : en:Chapter 01
00:09:48.541 : en:Chapter 02
00:20:55.791 : en:Chapter 03
00:30:47.166 : en:Chapter 04
00:41:20.541 : en:Chapter 05
00:53:17.625 : en:Chapter 06
01:02:45.750 : en:Chapter 07
01:12:56.875 : en:Chapter 08
01:23:17.458 : en:Chapter 09
01:33:34.166 : en:Chapter 10
01:42:35.916 : en:Chapter 11
01:51:28.333 : en:Chapter 12


скриншот   скриншот   скриншот   скриншот  




Journal 64
«A series of mysterious disappearances in 2006 are eerily connected to the same institution»


Год выпуска: 2018
Страна: Дания, Германия, Швеция, Норвегия
Жанр: Триллер, криминал, детектив

Продолжительность: 01:57:54
Перевод: Профессиональный многоголосый | [HDRezka Studio]
Субтитры: русские


Режиссер: Кристоффер Боэ
В ролях: Фарес Фарес, Николай Ли Каас, Николас Бро, Андерс Хове, Эллиотт Кроссет Хов, Андерс Юль, Сёрен Пильмарк, Фанни Борнедал, Вибеке Хаструп, Трине Паллесен, Ванда Перделвиц, Джохэнн Луиз Шмидт, Бирте Нойманн

Описание:
В заброшенной квартире найдены три мумифицированных трупа. Дело передано детективу копенгагенской полиции Карлу Мерку и его помощнику Ассаду. Расследование приводит детектива в женскую клинику на острове, более похожую на тюрьму.

Мировая премьера: 29 сентября 2018


Качество: BDRip 1080p by DD2D3
Формат: MKV
Видео кодек: V_MPEGH/ISO/HEVC
Аудио кодек: AC3
Видео: V_MPEGH/ISO/HEVC; 1920x804 (2.40:1); 3705 Kbps; 60 fps; 0,040 bpp
Аудио: русский; AC3; 192 Kbps; CBR; 2 ch
Навигация по главам: нет



Общее
Уникальный идентификатор : 180551056874534103601958369193210520697 (0x87D4DE62A26DA880881EC2B68F21A479)
Полное имя : D:\Misterium (2013 - ......) BDRip - HEVC 1080p 10 bit 60 FPS\Journal 64 (2018) BDRip - HEVC 1080p 10 bit 60 FPS.mkv
Формат : Matroska
Версия формата : Version 4
Размер файла : 3,21 Гбайт
Продолжительность : 1 ч. 57 м.
Общий поток : 3 903 Кбит/сек
Название фильма : Rip by from DD2D3
Дата кодирования : UTC 2021-05-24 15:58:23
Программа кодирования : mkvmerge v10.0.0 ('To Drown In You') 32bit
Библиотека кодирования : libebml v1.3.4 + libmatroska v1.4.5
Attachments : poster

Видео
Идентификатор : 1
Формат : HEVC
Формат/Информация : High Efficiency Video Coding
Профиль формата : Main 10@L4.1@Main
Идентификатор кодека : V_MPEGH/ISO/HEVC
Продолжительность : 1 ч. 57 м.
Битрейт : 3 705 Кбит/сек
Ширина : 1 920 пикселей
Высота : 804 пикселя
Соотношение сторон : 2,40:1
Режим частоты кадров : Постоянный
Частота кадров : 60,000 кадров/сек
Цветовое пространство : YUV
Субдискретизация насыщенности : 4:2:0
Битовая глубина : 10 бит
Бит/(Пиксели*Кадры) : 0.040
Размер потока : 3,05 Гбайт (95%)
Библиотека кодирования : x265 2.3+33-0b7d54dbb71a87a0:[Windows][MSVC 1800][64 bit] 10bit: KG7x [x265.ru]
Настройки программы : cpuid=1173503 / frame-threads=2 / numa-pools=4 / wpp / no-pmode / no-pme / no-psnr / no-ssim / log-level=2 / input-csp=1 / input-res=1920x804 / interlace=0 / total-frames=424448 / level-idc=41 / high-tier=1 / uhd-bd=0 / ref=3 / no-allow-non-conformance / no-repeat-headers / annexb / no-aud / no-hrd / info / hash=0 / no-temporal-layers / open-gop / min-keyint=25 / keyint=250 / bframes=4 / b-adapt=2 / b-pyramid / bframe-bias=0 / rc-lookahead=20 / lookahead-slices=5 / scenecut=40 / no-intra-refresh / ctu=64 / min-cu-size=8 / no-rect / no-amp / max-tu-size=32 / tu-inter-depth=1 / tu-intra-depth=1 / limit-tu=0 / rdoq-level=0 / dynamic-rd=0.00 / no-ssim-rd / signhide / no-tskip / nr-intra=0 / nr-inter=0 / no-constrained-intra / strong-intra-smoothing / max-merge=2 / limit-refs=3 / no-limit-modes / me=1 / subme=2 / merange=57 / temporal-mvp / weightp / no-weightb / no-analyze-src-pics / deblock=0:0 / sao / no-sao-non-deblock / rd=3 / no-early-skip / rskip / no-fast-intra / no-tskip-fast / no-cu-lossless / no-b-intra / rdpenalty=0 / psy-rd=2.00 / psy-rdoq=0.00 / no-rd-refine / analysis-mode=0 / no-lossless / cbqpoffs=0 / crqpoffs=0 / rc=abr / bitrate=3700 / qcomp=0.60 / qpstep=4 / stats-write=0 / stats-read=2 / cplxblur=20.0 / qblur=0.5 / ipratio=1.40 / pbratio=1.30 / aq-mode=1 / aq-strength=1.00 / cutree / zone-count=0 / no-strict-cbr / qg-size=32 / no-rc-grain / qpmax=69 / qpmin=0 / sar=1 / overscan=0 / videoformat=5 / range=0 / colorprim=2 / transfer=2 / colormatrix=2 / chromaloc=0 / display-window=0 / max-cll=0,0 / min-luma=0 / max-luma=1023 / log2-max-poc-lsb=8 / vui-timing-info / vui-hrd-info / slices=1 / opt-qp-pps / opt-ref-list-length-pps / no-multi-pass-opt-rps / scenecut-bias=0.05 / no-opt-cu-delta-qp / no-aq-motion / no-hdr / no-hdr-opt / refine-level=5 / no-limit-sao
Default : Да
Forced : Нет

Аудио
Идентификатор : 2
Формат : AC-3
Формат/Информация : Audio Coding 3
Коммерческое название : Dolby Digital
Идентификатор кодека : A_AC3
Продолжительность : 1 ч. 57 м.
Вид битрейта : Постоянный
Битрейт : 192 Кбит/сек
Каналы : 2 канала
Channel layout : L R
Частота : 48,0 КГц
Частота кадров : 31,250 кадров/сек (1536 SPF)
Метод сжатия : С потерями
Размер потока : 162 Мбайт (5%)
Заголовок : MVO-HDRezka Studio
Язык : Russian
Service kind : Complete Main
Default : Нет
Forced : Нет

Текст
Идентификатор : 3
Формат : UTF-8
Идентификатор кодека : S_TEXT/UTF8
Идентификатор кодека/Информация : UTF-8 Plain Text
Продолжительность : 1 ч. 53 м.
Битрейт : 76 бит/сек
Count of elements : 1000
Размер потока : 63,7 Кбайт (0%)
Заголовок : Full
Язык : Russian
Default : Нет
Forced : Нет


скриншот   скриншот   скриншот   скриншот  




pb.wtf



Скачать Мистериум: Антология через торрент https://funkyimg.com/i/3c7yT.jpg Скачать, смотреть онлайн Мистериум: Антология бесплантно в хорошем качестве Описание: Детективы Карл Мерке и Аса работают в Департаменте Q, занимающемся «глухарями». Взявшись за дело пятилетней давности об ... 10 10 1
Торрент: Зарегистрирован [2021-05-24 17:40] · скачан: 32 раз
Статус: √ проверено
Размер: 12.48 GB
Как cкачать? Как скачать Мистериум: Антология через торрент | UTorrent

28-11-2019 20:33  

Отключить всю рекламу на сайте

    Дорогой пользователь! Огромная просьба, поблагодарите релизера, оцените раздачу и оставьте свои комментарий, если Вы скачали Мистериум: Антология через торрент бесплатно!
    Комментировать посты могут только пользователи прошедшие не сложную регистрацию
    Показать сообщения:    

    Мистериум: Антология через торрент
    Скачать бесплатно Мистериум: Антология
    Мистериум: Антология скачать торрент
    Мистериум: Антология смотреть онлайн
    Cкачать фильм Мистериум: Антология бесплатно
    Мистериум: Антология скачать торрент в хорошем качестве
    Мистериум: Антология смотреть онлайн бесплатно в хорошем качестве


    Вы не можете начинать темы
    Вы не можете отвечать на сообщения
    Вы не можете редактировать свои сообщения
    Вы не можете удалять свои сообщения
    Вы не можете голосовать в опросах
    Вы не можете прикреплять файлы к сообщениям
    Вы можете скачивать файлы