Присоединяйтесь к нам в Telegram!, здесь всегда актуальный адрес сайта, оперативная поддержка и многое другое!!

>

5.9

iTunes

7.4

iTunes

9.4

1 сезон

1

7.4

2 сезон

7.2

iTunes

7.3

1 сезон

13

6.1

iTunes

8.3

Пиратка

30

ULTIMATE

pack

9.9

Лицензия

ВАЖНО

ИГРА 18+

pack

7.3

RePack

MK11

7.7

RePack

jed

7.8

RePack

fifa19

8.5

RePack

RDR2

RePack

NEED FOR SPEED™ PAYBACK

5 сезон

9 сезон

Бесстыжие 9 сезон

Все сериалы

все сериалы на PB.wtf

RePack

FAR CRY 5

Anonymous, доброе утро, мы катастрофически не успеваем собрать деньги на оплату серверов, помогите нам пожалуйста 5,10,15р., для нас важна любая помощь . В качестве благодарности мы отключим Вам всю рекламу на сайте (укажите свой ник в строку Ваше имя)!

×
  
Magnet ссылка

Длинный уик-энд / Long Weekend (Стивен Бэйзилон) [2021, Мелодрама, комедия, WEB-DLRip-AVC] MVO [iTunes] от MediaBit pb.wtf

Длинный уик-энд через торрент pb.wtf

Размер: 2.05 GB | Добавлен: 6 мес. назад | Торрент скачан:53 раза
Смотреть онлайн Длинный уик-энд | Скачать    Ребята, помогите собрать деньги на оплату серверов!!!

26-05-2021 18:01 Длинный уик-энд Скачать торрент  


Длинный уик-энд / Long Weekend
Информация о фильме:
Название: Длинный уик-энд
Оригинальное название: Long Weekend
Год выхода: 2021
Жанр: Мелодрама, комедия
Режиссер: Стивен Бэйзилон

В ролях: Стивен Бэйзилон, Дженнифер Ирвин, Джесс Джейкобс, Финн Уиттрок, Венди Маклендон-Кови, Дэймон Уайанс мл., Эллисон Рэнделл, Картер Морган, Кейси Уилсон, Джим Рэш

Описание: Писатель Барт переживает нелёгкие времена. Его мама недавно умерла от рака, и он пережил сложное расставание с девушкой, что привело Барта к нервному срыву. А финансовые трудности вынудили и без того потерянного мужчину переехать из своей уютной квартирки в Лос-Анджелесе. К счастью, лучший друг Даг и его жена Рейчел пригласили Барта временно пожить у них, пока его дела не наладятся. Чтобы иметь возможность хоть как-то себя обеспечивать, Барт соглашается на работу в медицинской компании, где он, писатель, вынужден составлять скучные каталоги. Именно в этот депрессивный период происходит встреча, изменившая жизнь незадачливого героя.



Страна: США
Студия: Fifty Seventh Street Productions, Invisible Pictures, Park Pictures
Продолжительность: 01:31:15
Перевод: Профессиональный (многоголосый, закадровый) - iTunes



Информация о файле:
Кодек: AVC
Формат: MKV
Качество: WEB-DLRip-AVC
Видео: MPEG-4 AVC, 1024x512, 23.976 fps, 2446 kbps
Аудио RU: AC3, 6 ch, 48 kHz, 384 kbps
Аудио EN: AC3, 6 ch, 48 kHz, 384 kbps
Субтитры: Русские (full), английские

x264 info: frame I:963 Avg QP:11.65 size: 87932
x264 info: frame P:26912 Avg QP:13.99 size: 29840
x264 info: frame B:103397 Avg QP:17.13 size: 7576
General
Unique ID : 165778135362959211274527601450942479408 (0x7CB7B51EDA3756D9929CDDA300503C30)
Complete name : D:uTorrentРипы_от_wolf1245_MediaBitLong.Weekend.2021.MVO.WEB-DLRip-AVC.[wolf1245.MediaBit].mkv
Format : Matroska
Format version : Version 4
File size : 2.05 GiB
Duration : 1 h 31 min
Overall bit rate : 3 212 kb/s
Movie name : Long.Weekend.2021.MVO.WEB-DLRip-AVC.[wolf1245.MediaBit]
Encoded date : UTC 2021-05-26 17:44:14
Writing application : mkvmerge v57.0.0 ('Till The End') 64-bit
Writing library : libebml v1.4.2 + libmatroska v1.6.4
Video
ID : 1
Format : AVC
Format/Info : Advanced Video Codec
Format profile : High@L4.1
Format settings : CABAC / 12 Ref Frames
Format settings, CABAC : Yes
Format settings, Reference frames : 12 frames
Codec ID : V_MPEG4/ISO/AVC
Duration : 1 h 31 min
Bit rate : 2 446 kb/s
Width : 1 024 pixels
Height : 512 pixels
Display aspect ratio : 1.85:1
Frame rate mode : Constant
Frame rate : 23.976 (24000/1001) FPS
Color space : YUV
Chroma subsampling : 4:2:0
Bit depth : 8 bits
Scan type : Progressive
Bits/(Pixel*Frame) : 0.195
Stream size : 1.56 GiB (76%)
Title : .[wolf1245.MediaBit]
Writing library : x264 core 157 r2958 57baac4
Encoding settings : cabac=1 / ref=12 / deblock=1:0:0 / analyse=0x3:0x133 / me=umh / subme=10 / psy=1 / psy_rd=0.97:0.05 / mixed_ref=1 / me_range=32 / chroma_me=1 / trellis=2 / 8x8dct=1 / cqm=0 / deadzone=21,11 / fast_pskip=1 / chroma_qp_offset=-3 / threads=10 / lookahead_threads=2 / sliced_threads=0 / nr=0 / decimate=1 / interlaced=0 / bluray_compat=0 / constrained_intra=0 / bframes=10 / b_pyramid=2 / b_adapt=2 / b_bias=0 / direct=3 / weightb=1 / open_gop=0 / weightp=2 / keyint=240 / keyint_min=24 / scenecut=40 / intra_refresh=0 / rc_lookahead=60 / rc=2pass / mbtree=1 / bitrate=2446 / ratetol=1.0 / qcomp=0.60 / qpmin=0 / qpmax=69 / qpstep=4 / cplxblur=20.0 / qblur=0.5 / vbv_maxrate=50000 / vbv_bufsize=62500 / nal_hrd=none / filler=0 / ip_ratio=1.40 / aq=3:0.80
Language : English
Default : Yes
Forced : No
Color range : Limited
Color primaries : BT.709
Transfer characteristics : BT.709
Matrix coefficients : BT.709
Audio #1
ID : 2
Format : AC-3
Format/Info : Audio Coding 3
Commercial name : Dolby Digital
Codec ID : A_AC3
Duration : 1 h 31 min
Bit rate mode : Constant
Bit rate : 384 kb/s
Channel(s) : 6 channels
Channel layout : L R C LFE Ls Rs
Sampling rate : 48.0 kHz
Frame rate : 31.250 FPS (1536 SPF)
Bit depth : 16 bits
Compression mode : Lossy
Stream size : 251 MiB (12%)
Title : MVO | (iTunes)
Language : Russian
Service kind : Complete Main
Default : Yes
Forced : No
Audio #2
ID : 3
Format : AC-3
Format/Info : Audio Coding 3
Commercial name : Dolby Digital
Codec ID : A_AC3
Duration : 1 h 31 min
Bit rate mode : Constant
Bit rate : 384 kb/s
Channel(s) : 6 channels
Channel layout : L R C LFE Ls Rs
Sampling rate : 48.0 kHz
Frame rate : 31.250 FPS (1536 SPF)
Bit depth : 16 bits
Compression mode : Lossy
Stream size : 251 MiB (12%)
Title : Original
Language : English
Service kind : Complete Main
Default : No
Forced : No
Text #1
ID : 4
Format : UTF-8
Codec ID : S_TEXT/UTF8
Codec ID/Info : UTF-8 Plain Text
Duration : 1 h 30 min
Bit rate : 91 b/s
Count of elements : 1186
Stream size : 60.6 KiB (0%)
Title : Full
Language : Russian
Default : No
Forced : No
Text #2
ID : 5
Format : UTF-8
Codec ID : S_TEXT/UTF8
Codec ID/Info : UTF-8 Plain Text
Duration : 1 h 30 min
Bit rate : 82 b/s
Count of elements : 1833
Stream size : 54.7 KiB (0%)
Title : SDH
Language : English
Default : No
Forced : No
Релиз от: &
Автор релиза:
pb.wtf



Скачать Длинный уик-энд через торрент https://i114.fastpic.ru/big/2021/0526/71/dd62f417dcd0bfb94f2b28fdd0f57971.jpg Скачать, смотреть онлайн Длинный уик-энд бесплантно в хорошем качестве Описание: Писатель Барт переживает нелёгкие времена. Его мама недавно умерла от рака, и он пережил сложное расставание с девушкой, что ... 10 10 2
Торрент: Зарегистрирован [2021-05-26 18:01] · скачан: 53 раз
Статус: √ проверено
Размер: 2.05 GB
Как cкачать? Как скачать Длинный уик-энд через торрент | UTorrent

28-11-2019 20:33  

Отключить всю рекламу на сайте

    Дорогой пользователь! Огромная просьба, поблагодарите релизера, оцените раздачу и оставьте свои комментарий, если Вы скачали Длинный уик-энд через торрент бесплатно!
    Комментировать посты могут только пользователи прошедшие не сложную регистрацию
    Показать сообщения:    

    Длинный уик-энд через торрент
    Скачать бесплатно Длинный уик-энд
    Длинный уик-энд скачать торрент
    Длинный уик-энд смотреть онлайн
    Cкачать фильм Длинный уик-энд бесплатно
    Длинный уик-энд скачать торрент в хорошем качестве
    Длинный уик-энд смотреть онлайн бесплатно в хорошем качестве


    Вы не можете начинать темы
    Вы не можете отвечать на сообщения
    Вы не можете редактировать свои сообщения
    Вы не можете удалять свои сообщения
    Вы не можете голосовать в опросах
    Вы не можете прикреплять файлы к сообщениям
    Вы можете скачивать файлы