Доктор Стрэндж

Лицензия

Добыча

Дубляж

Дом дракона

1 сезон

Тор

Дубляж

В эфире

Дубляж

Там, где раки поют

MVO

Властелин колец

1 сезон

Ultimate

pack

Рекомендуем

30

Пиратка

ВАЖНО

ВАЖНО

Ghostwire

Пиратка

jed

RePack

nioh2

RePack

RDR2

RePack

NEED FOR SPEED™ PAYBACK

RePack

скачать торрент

Кинопоиск HD

Острые козырьки 6 сезон

6 сезон

FAR CRY 6

RePack

скачать торрент

Лицензия

скачать торрент

MVO

1

1 сезон

скачать торрент

1 сезон

скачать торрент

Лицензия

  

Пальма (Александр Домогаров мл.) [2021, Семейный, приключения, WEB-DLRip-AVC]

Пальма через торрент pb.wtf

Размер: 2.05 GB | Добавлен: 1 год 5 мес. назад | Торрент скачан:188 раз
Смотреть онлайн | Скачать   

27-05-2021 16:26 Пальма Скачать торрент  

Пальма
Год выпуска: 2021
Страна: Россия, Япония
Студия: Телеканал «РОССИЯ 1», OKKO Studios, АМЕДИА, Марс Медиа Энтертейнмент
Жанр: Семейный, приключения
Продолжительность: 01:50:13
Перевод: Не требуется | iTunes
Субтитры: отсутствуют

Режиссер: Александр Домогаров мл.

rating

В ролях: Виктор Добронравов, Леонид Басов, Владимир Ильин, Валерия Федорович, Евгения Дмитриева, Игорь Хрипунов, Павел Майков, Владимир Симонов, Ян Цапник, Филипп Савинков, Дарья Лузина, Елена Анисимова, Михаил Богдасаров, Микаэл Джанибекян, Баин Бовальдинов, Илья Луцак, Александр Домогаров, Хироюки Ватанабе, Томоко Фудзита, Мицу Дан, Осаму Ямамото, Дзюн Такамацу, Дзюнко Абэ, Ёсикуни Дотин, Алина Загитова, Анастасия Шига

Описание: Овчарка по кличке Пальма вынужденно расстается с хозяином: тот улетает за границу, а верную собаку не берут на рейс и оставляют прямо на летном поле. Пальма прячется в аэропорту и каждый день встречает самолеты в надежде, что хозяин вернулся. Но время идет… 9-летний Коля — тоже новенький в аэропорту: он потерял маму и переехал к отцу-пилоту, которого почти не знает. Пальма становится для мальчика родственной душой и лучшим другом. А отцу Коли, летчику Лазареву, предстоит заслужить доверие и любовь сына, сделав нелегкий выбор между карьерой и семьей. И найти способ не разлучить друзей, когда за Пальмой однажды возвращается хозяин.

Качество: WEB-DLRip-AVC
Формат: MKV

Видео: 1024x428 (2.40:1), 24 fps, MPEG-4 AVC ~ 2290 Kbps avg, 0.218 bit/pixel
Аудио: 48 kHz, AC3 Dolby Digital, 3/2 (L,C,R,l,r) + LFE ch, ~384 kbps
скриншот  скриншот  скриншот  скриншот  скриншот  

x264 [info]: frame I:1285 Avg QP:13.81 size: 68550
x264 [info]: frame P:37390 Avg QP:16.71 size: 24258
x264 [info]: frame B:119842 Avg QP:18.17 size: 7451
x264 [info]: consecutive B-frames: 3.0% 4.5% 12.5% 16.8% 10.5% 48.4% 3.5% 0.3% 0.6%
***********************************************************

Общее
Уникальный идентификатор : 243354229465837164787435992827528623293 (0xB71451DBEEB93E250CAF9858ED6234BD)
Полное имя : Palma.2020.iT.WEB-DLRip.1.78Gb.x264.MegaPeer.mkv
Формат : Matroska
Версия формата : Version 4
Размер файла : 2,05 Гбайт
Продолжительность : 1 ч. 50 м.
Общий поток : 2 673 Кбит/сек
Название фильма : Пальма (2020) от MegaPeer
Дата кодирования : UTC 2021-05-20 12:43:31
Программа кодирования : mkvmerge v47.0.0 ('Black Flag') 64-bit
Библиотека кодирования : libebml v1.3.10 + libmatroska v1.5.2
Обложка : Yes
Attachments : cover.jpg

Видео
Идентификатор : 1
Формат : AVC
Формат/Информация : Advanced Video Codec
Профиль формата : [email protected]
Настройки формата : CABAC / 11 Ref Frames
Параметр CABAC формата : Да
Параметр RefFrames формата : 11 кадров
Идентификатор кодека : V_MPEG4/ISO/AVC
Продолжительность : 1 ч. 50 м.
Битрейт : 2 290 Кбит/сек
Ширина : 1 024 пикселя
Высота : 428 пикселей
Соотношение сторон : 2,40:1
Режим частоты кадров : Постоянный
Частота кадров : 24,000 кадра/сек
Цветовое пространство : YUV
Субдискретизация насыщенности : 4:2:0
Битовая глубина : 8 бит
Тип развёртки : Прогрессивная
Бит/(Пиксели*Кадры) : 0.218
Размер потока : 1,76 Гбайт (86%)
Заголовок : [email protected]
Библиотека кодирования : x264 core 161 r3018 db0d417
Настройки программы : cabac=1 / ref=11 / deblock=1:-3:-3 / analyse=0x3:0x113 / me=umh / subme=11 / psy=1 / psy_rd=1.00:0.00 / mixed_ref=1 / me_range=48 / chroma_me=1 / trellis=2 / 8x8dct=1 / cqm=0 / deadzone=21,11 / fast_pskip=0 / chroma_qp_offset=-2 / threads=13 / lookahead_threads=2 / sliced_threads=0 / nr=0 / decimate=0 / interlaced=0 / bluray_compat=0 / constrained_intra=0 / bframes=8 / b_pyramid=2 / b_adapt=2 / b_bias=0 / direct=3 / weightb=1 / open_gop=0 / weightp=2 / keyint=240 / keyint_min=24 / scenecut=40 / intra_refresh=0 / rc_lookahead=40 / rc=2pass / mbtree=0 / bitrate=2290 / ratetol=1.0 / qcomp=0.60 / qpmin=0 / qpmax=69 / qpstep=4 / cplxblur=20.0 / qblur=0.5 / vbv_maxrate=50000 / vbv_bufsize=62500 / nal_hrd=none / filler=0 / ip_ratio=1.40 / pb_ratio=1.30 / aq=1:1.10
Язык : Russian
Default : Да
Forced : Нет

Аудио
Идентификатор : 2
Формат : AC-3
Формат/Информация : Audio Coding 3
Коммерческое название : Dolby Digital
Идентификатор кодека : A_AC3
Продолжительность : 1 ч. 50 м.
Вид битрейта : Постоянный
Битрейт : 384 Кбит/сек
Каналы : 6 каналов
Channel layout : L R C LFE Ls Rs
Частота : 48,0 КГц
Частота кадров : 31,250 кадров/сек (1536 SPF)
Метод сжатия : С потерями
Размер потока : 302 Мбайт (14%)
Заголовок : iTunes
Язык : Russian
Service kind : Complete Main
Default : Да
Forced : Нет

Меню
00:00:00.000 : Глава 1
00:09:54.958 : Глава 2
00:17:55.249 : Глава 3
00:26:09.374 : Глава 4
00:33:46.832 : Глава 5
00:40:45.207 : Глава 6
00:48:23.707 : Глава 7
00:57:26.373 : Глава 8
01:05:13.164 : Глава 9
01:12:34.622 : Глава 10
01:20:05.538 : Глава 11
01:26:39.079 : Глава 12
01:34:03.704 : Глава 13
01:40:41.037 : Глава 14




Скачать Пальма через торрент https://i114.fastpic.ru/big/2021/0519/8c/de32db98dcb8aced0f953e824bd58d8c.jpg Скачать, смотреть онлайн Пальма бесплантно в хорошем качестве Описание: Овчарка по кличке Пальма вынужденно расстается с хозяином: тот улетает за границу, а верную собаку не берут на рейс и оставляют ... 10 10 6
Торрент: Зарегистрирован [2021-05-27 16:26] · скачан: 188 раз
Статус: √ проверено
Размер: 2.05 GB
Как cкачать? Как скачать Пальма через торрент | UTorrent

% Раздел Тема Автор DL S | L
Детские отечественные фильмы [ 10.9 GB ] Пальма | Лицензия | 1080p bober100 Скачать
2 | 0
Детские отечественные фильмы [ 6.28 GB ] Пальма | Лицензия | 720p bober100 Скачать
1 | 0
Детские отечественные фильмы [ 1.46 GB ] Пальма | Лицензия | BDRip bober100 Скачать
1 | 0
Детские отечественные фильмы [ 5.56 GB ] Пальма | iTunes | 1080p bober100 Скачать
1 | 0
Детские отечественные фильмы [ 1.46 GB ] Пальма | iTunes | DLRip bober100 Скачать
1 | 0

28-11-2019 20:33  


Отключить вcю реклaмy на сайте, в т.ч. и в плеере онлайн просмотра!

    Дорогой пользователь! Огромная просьба, поблагодарите релизера, оцените раздачу и оставьте свои комментарий, если Вы скачали Пальма через торрент бесплатно!!
    Комментировать посты могут только пользователи прошедшие не сложную регистрацию
    Показать сообщения:    


    Пальма через торрент
    Скачать бесплатно Пальма
    Пальма скачать торрент
    Пальма смотреть онлайн
    Cкачать фильм Пальма бесплатно
    Пальма скачать торрент в хорошем качестве
    Пальма смотреть онлайн бесплатно в хорошем качестве
    Вы не можете начинать темы
    Вы не можете отвечать на сообщения
    Вы не можете редактировать свои сообщения
    Вы не можете удалять свои сообщения
    Вы не можете голосовать в опросах
    Вы не можете прикреплять файлы к сообщениям
    Вы можете скачивать файлы
    Пальма [2021, Семейный, приключения, WEB-DLRip-AVC] смотреть онлайн, скачать торрент picoco.icu