1 сезон

3 сезон

iTunes

1

iTunes

DUB Netflix

iTunes

13

1 сезон

RePack

30

Deluxe

pack

Легкие деньги

ВАЖНО

ИГРА 18+

pack

RePack

MK11

RePack

jed

RePack

fifa19

RePack

RDR2

RePack

NEED FOR SPEED™ PAYBACK

4 сезон

9 сезон

Бесстыжие 9 сезон

Все сериалы

все сериалы на PB.wtf

RePack

FAR CRY 5

Anonymous, доброе утро, мы не успеваем до 1 числа собрать деньги на оплату серверов, помогите нам пожалуйста в это трудное время. В качестве благодарности мы отключим Вам всю рекламу на сайте (укажите свой ник в строку Ваше имя)!

×
  
Magnet ссылка

Упс... Приплыли! / Ooops! The Adventure Continues (Тоби Генкель, Шон МакКормак) [2020, Мультфильм, комедия, приключения, семейный, BD Remux 1080p] DUB (rus, ukr) [iTunes] pb.wtf

Упс... Приплыли! через торрент pb.wtf

Раздают: 1 [ 0 KB/s ]
Размер: 14.91 GB | Добавлен: 18 д. назад | Торрент скачан:36 раз
Скачать  

27-05-2021 18:58 Упс... Приплыли! Скачать торрент  

Упс... Приплыли! | Ooops! The Adventure Continues
Год выпуска: 2020
Страна: Ирландия, Люксембург
Выпущено: Ulysses Filmproduktion, Fabrique d'Images
Жанр: Мультфильм, комедия, приключения, семейный
Продолжительность: 01:26:09
Перевод:
#1: Дублированный | RU | iTunes
#2: Дублированный | UKR
Субтитры: Английские

Режиссер: Тоби Генкель, Шон МакКормак

rating

В ролях: Макс Кэролан, Ава Коннолли, Дермот Магеннис, Тара Флинн, Мэри Мюррэй, Брендан Макдональд, Карли Кейн, Алан Стэнфорд, Эйлин Митен, Пол Тайлак

Описание: После 147 дней в открытом море дела на ковчеге не очень: запасы еды заканчиваются, хищники начинают жадно посматривать на травоядных, а земля так и не показалась. Но все меняет случай. Нечаянно оказавшись за бортом, Финни и Леа обнаруживают райский остров, на котором всем нашлось бы место. Осталось только спросить, что по этому поводу думают обитатели этого острова…

Качество: BD Remux 1080p
Формат: MKV

Видео: MPEG-4 AVC, 21.8 Mb/s, 1920x1080, 24.000 fps
Аудио #1 Russian: 48 kHz, AC3 Dolby Digital, 3/2 (L, C, R, l, r) + LFE ch, ~384 Kbps | DUB | iTunes
Аудио #2 Ukrainian: 48 kHz, AC3 Dolby Digital, 2/0 (L, R) ch, ~192 Kbps | DUB
Аудио #3 English: 48 kHz, DTS-HD Master Audio, 3/2 (L, C, R, l, r) + LFE ch, ~2355 Kbps | Original
скриншот  скриншот  скриншот  скриншот  

Complete name: Ups.Priplyili.2020.BDRemux.1080p.ELEKTRI4KA.UNIONGANG.mkv
Format: Matroska
Format version: Version 4
File size: 14.9 GiB
Duration: 1 h 26 min
Overall bit rate mode: Variable
Overall bit rate: 24.8 Mb/s
Movie name: Ups.Priplyili.2020.BDRemux.1080p.ELEKTRI4KA.UNIONGANG.
Encoded date: UTC 2021-05-27 13:54:41
Writing application: mkvmerge v8.3.0 ('Over the Horizon') 64bit
Writing library: libebml v1.3.1 + libmatroska v1.4.2

Video
ID: 1
Format: AVC
Format/Info: Advanced Video Codec
Format profile: High@L4.1
Format settings: CABAC / 4 Ref Frames
Format settings, CABAC: Yes
Format settings, Reference frames: 4 frames
Codec ID: V_MPEG4/ISO/AVC
Duration: 1 h 26 min
Bit rate mode: Variable
Bit rate: 21.8 Mb/s
Maximum bit rate: 38.0 Mb/s
Width: 1 920 pixels
Height: 1 080 pixels
Display aspect ratio: 16:9
Frame rate mode: Constant
Frame rate: 24.000 FPS
Color space: YUV
Chroma subsampling: 4:2:0
Bit depth: 8 bits
Scan type: Progressive
Bits/(Pixel*Frame): 0.439
Stream size: 13.1 GiB (88%)
Default: Yes
Forced: No

Audio #1
ID: 2
Format: AC-3
Format/Info: Audio Coding 3
Commercial name: Dolby Digital
Codec ID: A_AC3
Duration: 1 h 26 min
Bit rate mode: Constant
Bit rate: 384 kb/s
Channel(s): 6 channels
Channel layout: L R C LFE Ls Rs
Sampling rate: 48.0 kHz
Frame rate: 31.250 FPS (1536 SPF)
Compression mode: Lossy
Stream size: 237 MiB (2%)
Title: DUB (iTunes)
Language: Russian
Service kind: Complete Main
Default: Yes
Forced: Yes

Audio #2
ID: 3
Format: AC-3
Format/Info: Audio Coding 3
Commercial name: Dolby Digital
Codec ID: A_AC3
Duration: 1 h 26 min
Bit rate mode: Constant
Bit rate: 192 kb/s
Channel(s): 2 channels
Channel layout: L R
Sampling rate: 48.0 kHz
Frame rate: 31.250 FPS (1536 SPF)
Compression mode: Lossy
Stream size: 118 MiB (1%)
Title: DUB
Language: Ukrainian
Service kind: Complete Main
Default: No
Forced: No

Audio #3
ID: 4
Format: DTS XLL
Format/Info: Digital Theater Systems
Commercial name: DTS-HD Master Audio
Codec ID: A_DTS
Duration: 1 h 26 min
Bit rate mode: Variable
Bit rate: 2 355 kb/s
Channel(s): 6 channels
Channel layout: C L R Ls Rs LFE
Sampling rate: 48.0 kHz
Frame rate: 93.750 FPS (512 SPF)
Bit depth: 16 bits
Compression mode: Lossless
Stream size: 1.42 GiB (10%)
Language: English
Default: No
Forced: No

Text
ID: 5
Format: UTF-8
Codec ID: S_TEXT/UTF8
Codec ID/Info: UTF-8 Plain Text
Duration: 1 h 25 min
Bit rate: 53 b/s
Count of elements: 1219
Stream size: 33.3 KiB (0%)
Language: English
Default: No
Forced: No

Menu
00:00:00.000: en:Chapter 01
00:05:54.583: en:Chapter 02
00:14:29.958: en:Chapter 03
00:21:10.958: en:Chapter 04
00:24:30.542: en:Chapter 05
00:35:11.750: en:Chapter 06
00:46:02.375: en:Chapter 07
00:54:38.375: en:Chapter 08
01:03:17.667: en:Chapter 09
01:10:53.500: en:Chapter 10
01:17:36.000: en:Chapter 11
01:20:53.375: en:Chapter 12

pb.wtf



Скачать Упс... Приплыли! через торрент https://d.radikal.ru/d15/2105/43/8630fc1a1061.png Скачать фильм Упс... Приплыли! через торрент бесплантно в хорошем качестве Описание: После 147 дней в открытом море дела на ковчеге не очень: запасы еды заканчиваются, хищники начинают жадно посматривать на ... 10 10 3
Торрент: Зарегистрирован [2021-05-27 18:58] · скачан: 36 раз
Статус: √ проверено
Размер: 14.91 GB
Как cкачать? Как скачать Упс... Приплыли! через торрент | UTorrent

% Раздел Тема Автор DL S | L
Иностранные мультфильмы [ 2.05 GB ] Упс... Приплыли! / Ooops! The Adventure Continues [2020 Мультфильм полнометражный HDRip-AVC] от MediaBit Lithuania Скачать
6 | 0
Иностранные мультфильмы [ 1.46 GB ] Упс... Приплыли! / Ooops! The Adventure Continues [2020 Мультфильм BDRip] DUB bober100 Скачать
6 | 0
Зарубежные Мультфильмы (BDRip 1080p, 720p, Blu-ray, BD-Remux) [ 3.74 GB ] Упс... Приплыли! / Ooops! The Adventure Continues [2020 Мультфильм BDRip 720p] DUB bober100 Скачать
14 | 0
Зарубежные Мультфильмы (BDRip 1080p, 720p, Blu-ray, BD-Remux) [ 6.26 GB ] Упс... Приплыли! / Ooops! The Adventure Continues [2020 Мультфильм BDRip 1080p] DUB bober100 Скачать
5 | 0

28-11-2019 20:33  

Отключить всю рекламу на сайте

    Дорогой пользователь! Огромная просьба, поблагодарите релизера, оцените раздачу и оставьте свои комментарий, если Вы скачали Упс... Приплыли! через торрент бесплатно! Внесите свою лепту в развитие PiratBit!
    Комментировать посты могут только пользователи прошедшие не сложную регистрацию
    Показать сообщения:    

    Упс... Приплыли! через торрент
    Скачать бесплатно Упс... Приплыли!
    Упс... Приплыли! скачать торрент
    Упс... Приплыли! смотреть онлайн
    Cкачать фильм Упс... Приплыли! бесплатно
    Упс... Приплыли! скачать торрент в хорошем качестве
    Упс... Приплыли! смотреть онлайн бесплатно в хорошем качестве


    Вы не можете начинать темы
    Вы не можете отвечать на сообщения
    Вы не можете редактировать свои сообщения
    Вы не можете удалять свои сообщения
    Вы не можете голосовать в опросах
    Вы не можете прикреплять файлы к сообщениям
    Вы можете скачивать файлы