Доктор Стрэндж

Лицензия

Добыча

Дубляж

Дом дракона

1 сезон

Тор

Дубляж

В эфире

Дубляж

Там, где раки поют

MVO

Властелин колец

1 сезон

Ultimate

pack

Рекомендуем

30

Пиратка

ВАЖНО

ВАЖНО

Ghostwire

Пиратка

jed

RePack

nioh2

RePack

RDR2

RePack

NEED FOR SPEED™ PAYBACK

RePack

скачать торрент

Кинопоиск HD

Острые козырьки 6 сезон

6 сезон

FAR CRY 6

RePack

скачать торрент

Лицензия

скачать торрент

MVO

1

1 сезон

скачать торрент

1 сезон

скачать торрент

Лицензия

  

Стрекозиные крылья (Кузьма Кресницкий) [1968 г., детский, короткометражный, SATRip-AVC]

Стрекозиные крылья через торрент pb.wtf

Размер: 631 MB | Добавлен: 1 год 5 мес. назад | Торрент скачан:6 раз
Смотреть онлайн | Скачать   

28-05-2021 16:19 Стрекозиные крылья Скачать торрент  

Стрекозиные крылья

Год выпуска: 1968
Страна: СССР | Беларусьфильм
Жанр: детский, короткометражный
Продолжительность: 00:22:26
Перевод: не требуется

Режиссер: Кузьма Кресницкий

В ролях: Геннадий Лосев, Ольга Рябцева, Елена Акулова, Любовь Румянцева, Татьяна Алексеева

Описание: Лирическая новелла о первой детской любви пятикласника Пеки к однокласснице Аллочке Никольской — фигуристке-маленьком лебеде из балета Чайковского со стрекозиными крыльями, и о первых разочарованиях.



Файл
Формат: MKV
Кодек: x264
Качество: SATRip-AVC (DVB)
Видео: MPEG-4 AVC, [email protected], 25.000 fps, 3738 kbps, 0.374 bit/pixel
Аудио: Русский, AC3, 2 chnls, 192 kbps
x264 [info]: frame I:174 Avg QP:16.82 size: 52813
x264 [info]: frame P:8091 Avg QP:18.98 size: 31361
x264 [info]: frame B:25386 Avg QP:20.11 size: 14416
x264 [info]: consecutive B-frames: 2.1% 4.2% 11.2% 26.9% 21.8% 31.2% 2.1% 0.5% 0.0% 0.1% 0.0% 0.0% 0.0%
Format : Matroska
Format version : Version 4
File size : 631 MiB
Duration : 22 min 26 s
Overall bit rate : 3 934 kb/s
Movie name : Стрекозиные крылья (1968) - Rip by -{am}-
Encoded date : UTC 2021-05-27 17:10:26
Writing application : mkvmerge v7.2.0 ('On Every Street') 32bit built on Sep 13 2014 15:42:11
Writing library : libebml v1.3.0 + libmatroska v1.4.1
Attachments : poster.png

Video
ID : 1
Format : AVC
Format/Info : Advanced Video Codec
Format profile : [email protected]
Format settings : CABAC / 16 Ref Frames
Format settings, CABAC : Yes
Format settings, Reference : 16 frames
Codec ID : V_MPEG4/ISO/AVC
Duration : 22 min 26 s
Bit rate : 3 738 kb/s
Width : 704 pixels
Height : 568 pixels
Display aspect ratio : 4:3
Original display aspect rat : 4:3
Frame rate mode : Constant
Frame rate : 25.000 FPS
Color space : YUV
Chroma subsampling : 4:2:0
Bit depth : 8 bits
Scan type : Progressive
Bits/(Pixel*Frame) : 0.374
Stream size : 600 MiB (95%)
Title : Strekozinye.krylya.1968.{am}.750.Rus
Writing library : x264 core 161 r3048+53M 0749c36 t_mod_New [(8 & 10)[email protected] X86_64]
Encoding settings : cabac=1 / ref=16 / deblock=1:-2:-3 / analyse=0x3:0x133 / me=umh / subme=11 / psy=1 / fade_compensate=0.00 / psy_rd=1.07:0.20 / mixed_ref=1 / me_range=48 / chroma_me=1 / trellis=2 / 8x8dct=1 / cqm=2 / deadzone=6,6 / fast_pskip=0 / chroma_qp_offset=-3 / threads=18 / lookahead_threads=4 / sliced_threads=0 / nr=0 / decimate=0 / interlaced=0 / bluray_compat=0 / constrained_intra=0 / fgo=0 / bframes=12 / b_pyramid=2 / b_adapt=2 / b_bias=0 / direct=3 / weightb=1 / open_gop=0 / weightp=2 / keyint=250 / keyint_min=25 / scenecut=40 / intra_refresh=0 / rc_lookahead=40 / rc=crf / mbtree=0 / crf=18.0000 / qcomp=0.60 / qpmin=0:0:0 / qpmax=30:30:30 / qpstep=4 / vbv_maxrate=62500 / vbv_bufsize=78125 / crf_max=0.0 / nal_hrd=none / filler=0 / ip_ratio=1.40 / pb_ratio=1.30 / aq=3:1.00 / aq-sensitivity=10.00 / aq-factor=1.00:1.00:1.00 / aq2=0 / aq3=0
Language : Russian
Default : Yes
Forced : No
Color range : Limited
Color primaries : BT.601 PAL
Transfer characteristics : BT.470 System B/G
Matrix coefficients : BT.470 System B/G

Audio
ID : 2
Format : AC-3
Format/Info : Audio Coding 3
Commercial name : Dolby Digital
Codec ID : A_AC3
Duration : 22 min 26 s
Bit rate mode : Constant
Bit rate : 192 kb/s
Channel(s) : 2 channels
Channel layout : L R
Sampling rate : 48.0 kHz
Frame rate : 31.250 FPS (1536 SPF)
Compression mode : Lossy
Stream size : 30.8 MiB (5%)
Title : Original
Language : Russian
Service kind : Complete Main
Default : Yes
Forced : No



Скачать Стрекозиные крылья через торрент https://pic1.kartinco.top/new/img/2021-05/28/5p1ldmoxaia4iu6xazgblck50.png Скачать, смотреть онлайн Стрекозиные крылья бесплантно в хорошем качестве Описание: Лирическая новелла о первой детской любви пятикласника Пеки к однокласснице Аллочке Никольской — фигуристке-маленьком лебеде из ... 10 10 2
Торрент: Зарегистрирован [2021-05-28 16:19] · скачан: 6 раз
Статус: √ проверено
Размер: 631 MB
Как cкачать? Как скачать Стрекозиные крылья через торрент | UTorrent

28-11-2019 20:33  


Отключить вcю реклaмy на сайте, в т.ч. и в плеере онлайн просмотра!

    Дорогой пользователь! Огромная просьба, поблагодарите релизера, оцените раздачу и оставьте свои комментарий, если Вы скачали Стрекозиные крылья через торрент бесплатно!!
    Комментировать посты могут только пользователи прошедшие не сложную регистрацию
    Показать сообщения:    


    Стрекозиные крылья через торрент
    Скачать бесплатно Стрекозиные крылья
    Стрекозиные крылья скачать торрент
    Стрекозиные крылья смотреть онлайн
    Cкачать фильм Стрекозиные крылья бесплатно
    Стрекозиные крылья скачать торрент в хорошем качестве
    Стрекозиные крылья смотреть онлайн бесплатно в хорошем качестве
    Вы не можете начинать темы
    Вы не можете отвечать на сообщения
    Вы не можете редактировать свои сообщения
    Вы не можете удалять свои сообщения
    Вы не можете голосовать в опросах
    Вы не можете прикреплять файлы к сообщениям
    Вы можете скачивать файлы
    Стрекозиные крылья [1968 г., детский, короткометражный, SATRip-AVC] смотреть онлайн, скачать торрент picoco.icu