Достать ножи: Стеклянная луковица

MVO

Добыча

Дубляж

Уэнсдэй

1 сезон

Тор

Дубляж

13 клиническая

1 сезон

Жестокая ночь

MVO

Одни из нас

1 сезон

Deluxe

pack

Рекомендуем

30

Пиратка

ВАЖНО

ВАЖНО

Ghostwire

Пиратка

jed

RePack

nioh2

RePack

RDR2

RePack

NEED FOR SPEED™ PAYBACK

RePack

скачать торрент

Кинопоиск HD

Острые козырьки 6 сезон

6 сезон

FAR CRY 6

RePack

скачать торрент

Лицензия

скачать торрент

MVO

1

1 сезон

скачать торрент

1 сезон

скачать торрент

Лицензия

  

Чудо в океане / Blue Miracle (Хулио Квинтана) [2021, Драма, приключения, семейный, биография, WEB-DLRip-AVC] Дубляж [Netflix] от MediaBit

Чудо в океане через торрент pb.wtf

Раздают: 1 [ 0 KB/s ]
Размер: 2.05 GB | Добавлен: 1 год 8 мес. назад | Торрент скачан:186 раз
Смотреть онлайн | Скачать | Поддержите нас   

28-05-2021 17:32 Чудо в океане Скачать торрент  


Чудо в океане / Blue Miracle
Название: Чудо в океане
Оригинальное название: Blue Miracle
Год выхода: 2021
Жанр: Драма, приключения, семейный, биография
Режиссер: Хулио Квинтана

В ролях: Дэннис Куэйд, Брюс МакГилл, Рэймонд Крус, Дана Уиллер-Николсон, Фернанда Уррехола, Джимми Гонсале, Энтони Гонсалес, Нэйтан Аренас, Крис Дабек

Описание: Картина рассказывает историю одного детского дома в Мексике. Обрушившийся на побережье ураган полностью подорвал экономику заведения и нанес массу разрушений. На починку нужны деньги, которых у владельцев дома просто нет. Тогда сами жильцы дома решают прийти на помощь своим воспитателям и вместе с одним из них решают принять участие в рыболовецком турнире. Команда молодых энтузиастов объединяется с рыбаком-чемпионом, в надежде забрать главный приз турнира и спасти свой приют от банкротства.



Страна: Мексика, США
Студия: Endeavor Content, Mucho Mas Media, Provident Films, Reserve Entertainment, Third Coast Content
Продолжительность: 01:36:30
Перевод: Профессиональный (полное дублирование) - Netflix



Информация о файле:
Кодек: AVC
Формат: MKV
Качество: WEB-DLRip-AVC
Видео: MPEG-4 AVC, 1024x554, 24.000 fps, 2143 kbps
Аудио RU: AC3, 6 ch, 48 kHz, 448 kbps
Аудио EN: AC3, 6 ch, 48 kHz, 448 kbps
Субтитры: Russian, English
Навигация по главам: Да

x264 info: frame I:1148 Avg QP:14.52 size: 81219
x264 info: frame P:30714 Avg QP:18.23 size: 26282
x264 info: frame B:107110 Avg QP:22.05 size: 5670
General
Unique ID : 292304457561224922136852035858574463522 (0xDBE7CA6FDEC283595F068ADF9F99D222)
Complete name : D:uTorrentРипы_от_wolf1245_MediaBitCudo.v.okeane.2021.Дубляж.Netflix.WEB-DLRip-AVC.[wolf1245.MediaBit].mkv
Format : Matroska
Format version : Version 4
File size : 2.05 GiB
Duration : 1 h 36 min
Overall bit rate : 3 040 kb/s
Movie name : Cudo.v.okeane.2021.Дубляж.Netflix.WEB-DLRip-AVC.[wolf1245.MediaBit]
Encoded date : UTC 2021-05-28 17:14:07
Writing application : mkvmerge v57.0.0 ('Till The End') 64-bit
Writing library : libebml v1.4.2 + libmatroska v1.6.4
Video
ID : 1
Format : AVC
Format/Info : Advanced Video Codec
Format profile : [email protected]
Format settings : CABAC / 12 Ref Frames
Format settings, CABAC : Yes
Format settings, Reference frames : 12 frames
Codec ID : V_MPEG4/ISO/AVC
Duration : 1 h 36 min
Bit rate : 2 143 kb/s
Width : 1 024 pixels
Height : 554 pixels
Display aspect ratio : 1.85:1
Frame rate mode : Constant
Frame rate : 24.000 FPS
Color space : YUV
Chroma subsampling : 4:2:0
Bit depth : 8 bits
Scan type : Progressive
Bits/(Pixel*Frame) : 0.157
Stream size : 1.44 GiB (70%)
Title : .[wolf1245.MediaBit]
Writing library : x264 core 157 r2958 57baac4
Encoding settings : cabac=1 / ref=12 / deblock=1:0:0 / analyse=0x3:0x133 / me=umh / subme=10 / psy=1 / psy_rd=0.97:0.05 / mixed_ref=1 / me_range=32 / chroma_me=1 / trellis=2 / 8x8dct=1 / cqm=0 / deadzone=21,11 / fast_pskip=1 / chroma_qp_offset=-3 / threads=10 / lookahead_threads=2 / sliced_threads=0 / nr=0 / decimate=1 / interlaced=0 / bluray_compat=0 / constrained_intra=0 / bframes=10 / b_pyramid=2 / b_adapt=2 / b_bias=0 / direct=3 / weightb=1 / open_gop=0 / weightp=2 / keyint=240 / keyint_min=24 / scenecut=40 / intra_refresh=0 / rc_lookahead=60 / rc=2pass / mbtree=1 / bitrate=2143 / ratetol=1.0 / qcomp=0.60 / qpmin=0 / qpmax=69 / qpstep=4 / cplxblur=20.0 / qblur=0.5 / vbv_maxrate=50000 / vbv_bufsize=62500 / nal_hrd=none / filler=0 / ip_ratio=1.40 / aq=2:0.80
Language : English
Default : Yes
Forced : No
Audio #1
ID : 2
Format : AC-3
Format/Info : Audio Coding 3
Commercial name : Dolby Digital
Codec ID : A_AC3
Duration : 1 h 36 min
Bit rate mode : Constant
Bit rate : 448 kb/s
Channel(s) : 6 channels
Channel layout : L R C LFE Ls Rs
Sampling rate : 48.0 kHz
Frame rate : 31.250 FPS (1536 SPF)
Bit depth : 16 bits
Compression mode : Lossy
Stream size : 309 MiB (15%)
Title : Дубляж | Netflix
Language : Russian
Service kind : Complete Main
Default : No
Forced : No
Audio #2
ID : 3
Format : AC-3
Format/Info : Audio Coding 3
Commercial name : Dolby Digital
Codec ID : A_AC3
Duration : 1 h 36 min
Bit rate mode : Constant
Bit rate : 448 kb/s
Channel(s) : 6 channels
Channel layout : L R C LFE Ls Rs
Sampling rate : 48.0 kHz
Frame rate : 31.250 FPS (1536 SPF)
Bit depth : 16 bits
Compression mode : Lossy
Stream size : 309 MiB (15%)
Title : Original
Language : English
Service kind : Complete Main
Default : Yes
Forced : No
Text #1
ID : 4
Format : UTF-8
Codec ID : S_TEXT/UTF8
Codec ID/Info : UTF-8 Plain Text
Duration : 1 h 34 min
Bit rate : 95 b/s
Count of elements : 1335
Stream size : 66.4 KiB (0%)
Title : Русский
Language : Russian
Default : No
Forced : No
Text #2
ID : 5
Format : UTF-8
Codec ID : S_TEXT/UTF8
Codec ID/Info : UTF-8 Plain Text
Duration : 1 h 33 min
Bit rate : 82 b/s
Count of elements : 1648
Stream size : 56.7 KiB (0%)
Title : English (SDH)
Language : English
Default : No
Forced : No
Релиз от: amp; MediaBit




Скачать Чудо в океане через торрент https://i114.fastpic.ru/big/2021/0528/c8/5f4848844b0ebb9b07f866d06f8c61c8.png Скачать, смотреть онлайн Чудо в океане бесплантно в хорошем качестве Описание: Картина рассказывает историю одного детского дома в Мексике. Обрушившийся на побережье ураган полностью подорвал экономику ... 9.9 10 7
Торрент: Зарегистрирован [2021-05-28 17:32] · скачан: 186 раз
Статус: √ проверено
Размер: 2.05 GB
Как cкачать? Как скачать Чудо в океане через торрент | UTorrent

28-11-2019 20:33  


Отключить вcю реклaмy на сайте, в т.ч. и в плеере онлайн просмотра!

    Дорогой пользователь! Огромная просьба, поблагодарите релизера, оцените раздачу и оставьте свои комментарий, если Вы скачали Чудо в океане через торрент бесплатно!!
    Комментировать посты могут только пользователи прошедшие не сложную регистрацию
    Показать сообщения:    


    Чудо в океане через торрент
    Скачать бесплатно Чудо в океане
    Чудо в океане скачать торрент
    Чудо в океане смотреть онлайн
    Cкачать фильм Чудо в океане бесплатно
    Чудо в океане скачать торрент в хорошем качестве
    Чудо в океане смотреть онлайн бесплатно в хорошем качестве
    Вы не можете начинать темы
    Вы не можете отвечать на сообщения
    Вы не можете редактировать свои сообщения
    Вы не можете удалять свои сообщения
    Вы не можете голосовать в опросах
    Вы не можете прикреплять файлы к сообщениям
    Вы можете скачивать файлы
    Чудо в океане / Blue Miracle [2021, Драма, приключения, семейный, биография, WEB-DLRip-AVC] Дубляж [Netflix] от MediaBit смотреть онлайн, скачать торрент picoco.icu