Присоединяйтесь к нам в Telegram!, здесь всегда актуальный адрес сайта, оперативная поддержка и многое другое!!

>

5.9

iTunes

7.4

iTunes

9.4

1 сезон

1

7.4

2 сезон

7.2

iTunes

7.3

1 сезон

13

6.1

iTunes

8.3

Пиратка

30

ULTIMATE

pack

9.9

Лицензия

ВАЖНО

ИГРА 18+

pack

7.3

RePack

MK11

7.7

RePack

jed

7.8

RePack

fifa19

8.5

RePack

RDR2

RePack

NEED FOR SPEED™ PAYBACK

5 сезон

9 сезон

Бесстыжие 9 сезон

Все сериалы

все сериалы на PB.wtf

RePack

FAR CRY 5

Anonymous, доброе утро, мы катастрофически не успеваем собрать деньги на оплату серверов, помогите нам пожалуйста 5,10,15р., для нас важна любая помощь . В качестве благодарности мы отключим Вам всю рекламу на сайте (укажите свой ник в строку Ваше имя)!

×
  
Magnet ссылка

Гнев человеческий / Wrath of Man (Гай Ричи) [2021, боевик, триллер, WEB-DLRip-AVC] DUB [iTunes] от MediaBit pb.wtf

Гнев человеческий через торрент pb.wtf

Раздают: 1 [ 0 KB/s ]
Размер: 2.32 GB | Добавлен: 6 мес. назад | Торрент скачан:254 раза
Смотреть онлайн Гнев человеческий | Скачать    Ребята, помогите собрать деньги на оплату серверов!!!

28-05-2021 21:10 Гнев человеческий Скачать торрент  


Гнев человеческий / Wrath of man
Информация о фильме:
Название: Гнев человеческий
Оригинальное название: Wrath of man
Год выхода: 2021
Жанр: Боевик, триллер
Режиссер: Гай Ричи

В ролях: Джейсон Стэйтем, Холт МакКэллани, Джеффри Донован, Джош Хартнетт, Лаз Алонсо, Алекс Фернс, Рауль Кастильо, Деобиа Опарей, Скотт Иствуд, Нив Алгар

Описание: Эйч — загадочный и холодный на вид джентльмен, но внутри него пылает жажда справедливости. Преследуя свои мотивы, он внедряется в инкассаторскую компанию, чтобы выйти на соучастников серии многомиллионных ограблений, потрясших Лос-Анджелес. В этой запутанной игре у каждого своя роль, но под подозрением оказываются все. Виновных же обязательно постигнет гнев человеческий.



Страна: Великобритания, США
Студия: CAA Media Finance, Flic Films UK, Metro-Goldwyn-Mayer (MGM), Miramax Films, Toff Guy Films
Продолжительность: 01:58:57
Перевод: Профессиональный (полное дублирование) - iTunes



Информация о файле:
Кодек: AVC
Формат: MKV
Качество: WEB-DLRip-AVC
Видео: MPEG-4 AVC, 1024x428, 23.976 fps, 1762 kbps
Аудио RU: AC3, 6 ch, 48 kHz, 384 kbps
Аудио UKR: AC3, 2 ch, 48 kHz, 192 kbps | [Line]
Аудио EN: AC3, 6 ch, 48 kHz, 448 kbps
Субтитры: Russian (Forced, 2 x Full), Ukrainian (Forced), English
Навигация по главам: Нет

x264 info: frame I:1427 Avg QP:13.70 size: 69346
x264 info: frame P:41904 Avg QP:16.99 size: 20176
x264 info: frame B:127775 Avg QP:20.43 size: 4908
General
Unique ID : 253601747783149886537747457406186822519 (0xBEC9EB85264859F253B0D2A2A8041B77)
Complete name : D:uTorrentWrath.of.man.2021.DUB.WEB-DLRip-AVC.[wolf1245.MediaBit].mkv
Format : Matroska
Format version : Version 4
File size : 2.32 GiB
Duration : 1 h 58 min
Overall bit rate : 2 788 kb/s
Movie name : Wrath.of.man.2021.DUB.WEB-DLRip-AVC.[wolf1245.MediaBit]
Encoded date : UTC 2021-06-04 14:56:41
Writing application : mkvmerge v57.0.0 ('Till The End') 64-bit
Writing library : libebml v1.4.2 + libmatroska v1.6.4
Video
ID : 1
Format : AVC
Format/Info : Advanced Video Codec
Format profile : High@L4.1
Format settings : CABAC / 14 Ref Frames
Format settings, CABAC : Yes
Format settings, Reference frames : 14 frames
Codec ID : V_MPEG4/ISO/AVC
Duration : 1 h 58 min
Bit rate : 1 762 kb/s
Width : 1 024 pixels
Height : 428 pixels
Display aspect ratio : 2.40:1
Frame rate mode : Constant
Frame rate : 23.976 (24000/1001) FPS
Color space : YUV
Chroma subsampling : 4:2:0
Bit depth : 8 bits
Scan type : Progressive
Bits/(Pixel*Frame) : 0.168
Stream size : 1.46 GiB (63%)
Title : .[wolf1245.MediaBit]
Writing library : x264 core 157 r2958 57baac4
Encoding settings : cabac=1 / ref=14 / deblock=1:-2:-2 / analyse=0x3:0x133 / me=umh / subme=11 / psy=1 / psy_rd=1.00:0.07 / mixed_ref=1 / me_range=48 / chroma_me=1 / trellis=2 / 8x8dct=1 / cqm=0 / deadzone=21,11 / fast_pskip=1 / chroma_qp_offset=-3 / threads=10 / lookahead_threads=2 / sliced_threads=0 / nr=0 / decimate=1 / interlaced=0 / bluray_compat=0 / constrained_intra=0 / bframes=12 / b_pyramid=2 / b_adapt=2 / b_bias=0 / direct=3 / weightb=1 / open_gop=0 / weightp=2 / keyint=240 / keyint_min=24 / scenecut=40 / intra_refresh=0 / rc_lookahead=60 / rc=2pass / mbtree=1 / bitrate=1762 / ratetol=1.0 / qcomp=0.60 / qpmin=0 / qpmax=69 / qpstep=4 / cplxblur=20.0 / qblur=0.5 / vbv_maxrate=50000 / vbv_bufsize=62500 / nal_hrd=none / filler=0 / ip_ratio=1.40 / aq=1:0.80
Language : English
Default : Yes
Forced : No
Color range : Limited
Color primaries : BT.709
Transfer characteristics : BT.709
Matrix coefficients : BT.709
Audio #1
ID : 2
Format : AC-3
Format/Info : Audio Coding 3
Commercial name : Dolby Digital
Codec ID : A_AC3
Duration : 1 h 58 min
Bit rate mode : Constant
Bit rate : 384 kb/s
Channel(s) : 6 channels
Channel layout : L R C LFE Ls Rs
Sampling rate : 48.0 kHz
Frame rate : 31.250 FPS (1536 SPF)
Compression mode : Lossy
Stream size : 327 MiB (14%)
Title : DUB | (iTunes)
Language : Russian
Service kind : Complete Main
Default : Yes
Forced : Yes
Audio #2
ID : 3
Format : AC-3
Format/Info : Audio Coding 3
Commercial name : Dolby Digital
Codec ID : A_AC3
Duration : 1 h 58 min
Bit rate mode : Constant
Bit rate : 192 kb/s
Channel(s) : 2 channels
Channel layout : L R
Sampling rate : 48.0 kHz
Frame rate : 31.250 FPS (1536 SPF)
Compression mode : Lossy
Stream size : 163 MiB (7%)
Title : DUB | [Line]
Language : Ukrainian
Service kind : Complete Main
Default : No
Forced : No
Audio #3
ID : 4
Format : AC-3
Format/Info : Audio Coding 3
Commercial name : Dolby Digital
Codec ID : A_AC3
Duration : 1 h 58 min
Bit rate mode : Constant
Bit rate : 448 kb/s
Channel(s) : 6 channels
Channel layout : L R C LFE Ls Rs
Sampling rate : 48.0 kHz
Frame rate : 31.250 FPS (1536 SPF)
Compression mode : Lossy
Stream size : 381 MiB (16%)
Title : Original
Language : English
Service kind : Complete Main
Default : No
Forced : No
Text #1
ID : 5
Format : UTF-8
Codec ID : S_TEXT/UTF8
Codec ID/Info : UTF-8 Plain Text
Duration : 1 h 11 min
Bit rate : 0 b/s
Count of elements : 11
Stream size : 463 Bytes (0%)
Title : Forced
Language : Russian
Default : Yes
Forced : No
Text #2
ID : 6
Format : UTF-8
Codec ID : S_TEXT/UTF8
Codec ID/Info : UTF-8 Plain Text
Duration : 1 h 57 min
Bit rate : 91 b/s
Count of elements : 1577
Stream size : 78.8 KiB (0%)
Title : Full (iTunes)
Language : Russian
Default : No
Forced : No
Text #3
ID : 7
Format : UTF-8
Codec ID : S_TEXT/UTF8
Codec ID/Info : UTF-8 Plain Text
Duration : 1 h 52 min
Bit rate : 96 b/s
Count of elements : 1771
Stream size : 79.1 KiB (0%)
Title : Full (Enigma)
Language : Russian
Default : No
Forced : No
Text #4
ID : 8
Format : UTF-8
Codec ID : S_TEXT/UTF8
Codec ID/Info : UTF-8 Plain Text
Duration : 1 h 49 min
Bit rate : 0 b/s
Count of elements : 18
Stream size : 650 Bytes (0%)
Title : Ukr Forced
Language : Ukrainian
Default : No
Forced : Yes
Text #5
ID : 9
Format : UTF-8
Codec ID : S_TEXT/UTF8
Codec ID/Info : UTF-8 Plain Text
Duration : 1 h 50 min
Bit rate : 63 b/s
Count of elements : 1792
Stream size : 51.5 KiB (0%)
Title : Full
Language : English
Default : No
Forced : No
Text #6
ID : 10
Format : UTF-8
Codec ID : S_TEXT/UTF8
Codec ID/Info : UTF-8 Plain Text
Duration : 1 h 50 min
Bit rate : 70 b/s
Count of elements : 1990
Stream size : 56.8 KiB (0%)
Title : English (SDH)
Language : English
Default : No
Forced : No
Релиз от: &
Автор релиза:
pb.wtf



Скачать Гнев человеческий через торрент https://i114.fastpic.ru/big/2021/0528/b0/68495f7404f1a08608c301d7679778b0.jpg Скачать, смотреть онлайн Гнев человеческий бесплантно в хорошем качестве Описание: Эйч — загадочный и холодный на вид джентльмен, но внутри него пылает жажда справедливости. Преследуя свои мотивы, он внедряется ... 10 10 17
Торрент: Зарегистрирован [2021-06-04 15:07] · скачан: 254 раз
Статус: √ проверено
Размер: 2.32 GB
Как cкачать? Как скачать Гнев человеческий через торрент | UTorrent

28-11-2019 20:33  

Отключить всю рекламу на сайте

    Дорогой пользователь! Огромная просьба, поблагодарите релизера, оцените раздачу и оставьте свои комментарий, если Вы скачали Гнев человеческий через торрент бесплатно!
    Комментировать посты могут только пользователи прошедшие не сложную регистрацию
    Показать сообщения:    

    Гнев человеческий через торрент
    Скачать бесплатно Гнев человеческий
    Гнев человеческий скачать торрент
    Гнев человеческий смотреть онлайн
    Cкачать фильм Гнев человеческий бесплатно
    Гнев человеческий скачать торрент в хорошем качестве
    Гнев человеческий смотреть онлайн бесплатно в хорошем качестве


    Вы не можете начинать темы
    Вы не можете отвечать на сообщения
    Вы не можете редактировать свои сообщения
    Вы не можете удалять свои сообщения
    Вы не можете голосовать в опросах
    Вы не можете прикреплять файлы к сообщениям
    Вы можете скачивать файлы