Присоединяйтесь к нам в Telegram!, здесь всегда актуальный адрес сайта, оперативная поддержка и многое другое!!

>

5.9

iTunes

7.4

iTunes

9.4

1 сезон

1

7.4

2 сезон

7.2

iTunes

7.3

1 сезон

13

6.1

iTunes

8.3

GOG

30

ULTIMATE

pack

9.9

Лицензия

ВАЖНО

ИГРА 18+

pack

7.3

RePack

MK11

7.7

RePack

jed

7.8

RePack

fifa19

8.5

RePack

RDR2

RePack

NEED FOR SPEED™ PAYBACK

5 сезон

9 сезон

Бесстыжие 9 сезон

Все сериалы

все сериалы на PB.wtf

RePack

FAR CRY 5

Anonymous, добрый вечер, мы катастрофически не успеваем собрать деньги на оплату серверов, помогите нам пожалуйста 5,10,15р., для нас важна любая помощь . В качестве благодарности мы отключим Вам всю рекламу на сайте (укажите свой ник в строку Ваше имя)!

×
  
Magnet ссылка

Розовое облако / A Nuvem Rosa / The Pink Cloud (Юли Жербази) [2021, Драма, фантастика, WEB-DLRip-AVC] DUB [iTunes] от MediaBit pb.wtf

Розовое облако через торрент pb.wtf

Раздают: 1 [ 0 KB/s ]
Размер: 1.45 GB | Добавлен: 6 мес. назад | Торрент скачан:162 раза
Смотреть онлайн Розовое облако | Скачать    Ребята, помогите собрать деньги на оплату серверов!!!

29-05-2021 19:13 Розовое облако Скачать торрент  


Розовое облако / A Nuvem Rosa / The Pink Cloud
Информация о фильме:
Название: Розовое облако
Оригинальное название: A Nuvem Rosa / The Pink Cloud
Год выхода: 2021
Жанр: Драма, фантастика
Режиссер: Юли Жербази

В ролях: Рената де Лелис, Эдуардо Мендонса, Хелена Бекер, Жирли Паес, Кая Родригес
Описание: Джованна где-то подцепила Яго, и вот они уже развлекаются в её двухэтажном особняке. С сексом, правда, ничего не выходит — оба слишком пьяны. А поутру пара просыпается от рёва сирен и хрипа громкоговорителей — власти призывают всех запереться и закрыть окна, так как в небе над всей планетой появились розовые облака, и их испарения смертельны.



Страна: Бразилия
Студия: Prana Filmes
Продолжительность: 01:44:18
Перевод: Дублированный - iTunes



Информация о файле:
Кодек: AVC
Формат: MKV
Качество: WEB-DLRip-AVC
Видео: MPEG-4 AVC, 1024x428, 23.976 fps, 1607 kbps
Аудио RU: AC3, 6 ch, 48 kHz, 384 kbps
Субтитры: Нет
Навигация по главам: Да

General
Unique ID : 219968452120996496678599763661214851965 (0xA57C620429EB38C77DCE243814BE237D)
Complete name : D:uTorrentРипы_от_wolf1245_MediaBitPink.Cloud.2021.DUB.iTunes.WEB-DLRip-AVC.[wolf1245.MediaBit] .mkv
Format : Matroska
Format version : Version 4
File size : 1.45 GiB
Duration : 1 h 44 min
Overall bit rate : 1 992 kb/s
Movie name : Pink.Cloud.2021.DUB.iTunes.WEB-DLRip-AVC.[wolf1245.MediaBit]
Encoded date : UTC 2021-05-29 18:57:32
Writing application : mkvmerge v57.0.0 ('Till The End') 64-bit
Writing library : libebml v1.4.2 + libmatroska v1.6.4
Video
ID : 1
Format : AVC
Format/Info : Advanced Video Codec
Format profile : High@L4.1
Format settings : CABAC / 14 Ref Frames
Format settings, CABAC : Yes
Format settings, Reference frames : 14 frames
Codec ID : V_MPEG4/ISO/AVC
Duration : 1 h 44 min
Bit rate : 1 607 kb/s
Width : 1 024 pixels
Height : 428 pixels
Display aspect ratio : 2.40:1
Frame rate mode : Constant
Frame rate : 23.976 (24000/1001) FPS
Color space : YUV
Chroma subsampling : 4:2:0
Bit depth : 8 bits
Scan type : Progressive
Bits/(Pixel*Frame) : 0.153
Stream size : 1.17 GiB (81%)
Title : .[wolf1245.MediaBit]
Writing library : x264 core 157 r2958 57baac4
Encoding settings : cabac=1 / ref=14 / deblock=1:-3:-3 / analyse=0x3:0x133 / me=umh / subme=11 / psy=1 / psy_rd=1.00:0.07 / mixed_ref=1 / me_range=48 / chroma_me=1 / trellis=2 / 8x8dct=1 / cqm=0 / deadzone=21,11 / fast_pskip=1 / chroma_qp_offset=-3 / threads=10 / lookahead_threads=2 / sliced_threads=0 / nr=0 / decimate=1 / interlaced=0 / bluray_compat=0 / constrained_intra=0 / bframes=12 / b_pyramid=2 / b_adapt=2 / b_bias=0 / direct=3 / weightb=1 / open_gop=0 / weightp=2 / keyint=240 / keyint_min=24 / scenecut=40 / intra_refresh=0 / rc_lookahead=60 / rc=2pass / mbtree=1 / bitrate=1607 / ratetol=1.0 / qcomp=0.60 / qpmin=0 / qpmax=69 / qpstep=4 / cplxblur=20.0 / qblur=0.5 / vbv_maxrate=50000 / vbv_bufsize=62500 / nal_hrd=none / filler=0 / ip_ratio=1.40 / aq=1:0.80
Language : English
Default : Yes
Forced : No
Color range : Limited
Color primaries : BT.709
Transfer characteristics : BT.709
Matrix coefficients : BT.709
Audio
ID : 2
Format : AC-3
Format/Info : Audio Coding 3
Commercial name : Dolby Digital
Codec ID : A_AC3
Duration : 1 h 44 min
Bit rate mode : Constant
Bit rate : 384 kb/s
Channel(s) : 6 channels
Channel layout : L R C LFE Ls Rs
Sampling rate : 48.0 kHz
Frame rate : 31.250 FPS (1536 SPF)
Bit depth : 16 bits
Compression mode : Lossy
Stream size : 286 MiB (19%)
Title : DUB | (iTunes)
Language : Russian
Service kind : Complete Main
Default : Yes
Forced : No
Menu
00:00:00.000 : :Глава 1
00:08:41.520 : :Глава 2
00:18:01.455 : :Глава 3
00:27:37.531 : :Глава 4
00:36:36.653 : :Глава 5
00:46:08.224 : :Глава 6
00:55:34.206 : :Глава 7
01:04:24.402 : :Глава 8
01:12:40.231 : :Глава 9
01:21:15.204 : :Глава 10
01:29:24.318 : :Глава 11
01:38:06.131 : :Глава 12
Релиз от: &
Автор релиза:
pb.wtf



Скачать Розовое облако через торрент https://i114.fastpic.ru/big/2021/0529/54/063742dc2a4891852b5801025590fd54.png Скачать, смотреть онлайн Розовое облако бесплантно в хорошем качестве Описание: Джованна где-то подцепила Яго, и вот они уже развлекаются в её двухэтажном особняке. С сексом, правда, ничего не выходит — оба ... 10 10 3
Торрент: Зарегистрирован [2021-05-29 19:13] · скачан: 162 раз
Статус: √ проверено
Размер: 1.45 GB
Как cкачать? Как скачать Розовое облако через торрент | UTorrent

28-11-2019 20:33  

Отключить всю рекламу на сайте

01-06-2021 19:18 Розовое облако Скачать торрент  

Автору за труды спасибо.А о самом "шедевре" скажу так-давно такой мути не смотрел.pb.wtf



    Дорогой пользователь! Огромная просьба, поблагодарите релизера, оцените раздачу и оставьте свои комментарий, если Вы скачали Розовое облако через торрент бесплатно!
    Комментировать посты могут только пользователи прошедшие не сложную регистрацию
    Показать сообщения:    

    Розовое облако через торрент
    Скачать бесплатно Розовое облако
    Розовое облако скачать торрент
    Розовое облако смотреть онлайн
    Cкачать фильм Розовое облако бесплатно
    Розовое облако скачать торрент в хорошем качестве
    Розовое облако смотреть онлайн бесплатно в хорошем качестве


    Вы не можете начинать темы
    Вы не можете отвечать на сообщения
    Вы не можете редактировать свои сообщения
    Вы не можете удалять свои сообщения
    Вы не можете голосовать в опросах
    Вы не можете прикреплять файлы к сообщениям
    Вы можете скачивать файлы