1 сезон

3 сезон

iTunes

1

iTunes

DUB Netflix

iTunes

13

1 сезон

RePack

30

Deluxe

pack

Легкие деньги

ВАЖНО

ИГРА 18+

pack

RePack

MK11

RePack

jed

RePack

fifa19

RePack

RDR2

RePack

NEED FOR SPEED™ PAYBACK

4 сезон

9 сезон

Бесстыжие 9 сезон

Все сериалы

все сериалы на PB.wtf

RePack

FAR CRY 5

Anonymous, доброе утро, мы не успеваем до 1 числа собрать деньги на оплату серверов, помогите нам пожалуйста в это трудное время. В качестве благодарности мы отключим Вам всю рекламу на сайте (укажите свой ник в строку Ваше имя)!

×
  
Magnet ссылка

Ле.Ген.Да / Сезон: 1 / Серии: 1-16 из 16 (Никита Власов, Кирилл Соколов) [2021, Комедия, WEBRip-AVC, (Версия 18+)] pb.wtf

Ле.Ген.Да через торрент pb.wtf

Раздают: 12 [ 157 KB/s ] Качают: 5 [ 0 KB/s ]
Размер: 5.03 GB | Добавлен: 4 д. назад | Торрент скачан:30 раз
Скачать  

31-05-2021 19:17 Ле.Ген.Да Скачать торрент  

Ле.Ген.Да
Год выпуска: 2021
Страна: Россия
Выпущено: «DroogDrooga Films», «1-2-3 production» по заказу телеканала ТНТ
Жанр: Комедия
Продолжительность: ~ 00:27:00
Перевод: Не требуется Русский
Субтитры: отсутствуют
Версия 18+.

Режиссер: Никита Власов, Кирилл Соколов



В ролях: Роман Курцын, Анастасия Уколова, Виталий Хаев, Екатерина Агеева, Юлия Топольницкая, Степан Девонин, Ростислав Бершауэр, Магомед Муртазаалиев, Владимир Свирский, Илья Кипоренко, Марк-Малик Мурашкин, Светлана Камынина, Максим Важов, Александра Антипова, Омар Алибутаев, Махмуд Гусейнов, Ирина Вилкова (II), Мария Денкова, Елена Полякова, Полина Казанцева, Алексей Карпов (IV), Олег Тактаров, Сергей Епишев

Описание: Бойца смешанных единоборств Леонид Давыдов по прозвищу Легенда ловят на допинге прямо перед подписанием контракта с UFC. Из-за самовлюблённости и эгоизма непобежденный боец ММА не замечает, как оказывается предан самыми близкими людьми. Теперь профессиональный спорт для него закрыт. Другого это могло бы разрушить, но для Легенды это лишь повод разогнаться и прыгнуть ещё выше. Легенда до сих пор хранит доставшийся ему от отца коллекцию кассет с фильмами «Кровавый спорт», «Каратэ-Пацан», «Путь Дракона» и другими классическими шедеврами. После допингового скандала он возвращается туда, где был воспитан: в захудалый клуб «Раунд», которым до сих пор заправляет его детский тренер Григорич. В этом же клубе Легенда снова встречается с Аней, дочкой Григорича и детской любовью. Легенда намерен перестроить клуб и воспитать свою команду – не просто бойцов, а победителей по жизни. Они разорвут мировые ринги и очистят честное имя Легенды. Разумеется, тренироваться к одержимому VHS-мудростями мастеру, который на любой лужайке видит поле битвы, приходят редкие отщепенцы и фрики.

Качество: WEBRip-AVC
Формат: MKV

Видео: MPEG-4 AVC, ~ 1600 Кбит/с, 1024x576, 25 кадр/с
Аудио: 48.0 kHz, AC3 Dolby Digital, 2/0 (L,R) ch, ~ 192 kbps
скриншот  скриншот  скриншот  скриншот  скриншот  

General
Unique ID : 255082461884693655135100199465773278309 (0xBFE7185C9D233B5CBB868B733235A465)
Complete name : F:\Ле.Ген.Да.(2021).WEBRip.(AVC).Files-x\01.Legenda.(2021).WEBRip.(AVC).by.Серый1779.Files-x.mkv
Format : Matroska
Format version : Version 2
File size : 356 MiB
Duration : 27 min 51 s
Overall bit rate : 1 789 kb/s
Encoded date : UTC 2021-05-31 17:45:21
Writing application : mkvmerge v7.8.0 ('River Man') 32bit built on Apr 3 2015 12:11:22
Writing library : libebml v1.3.1 + libmatroska v1.4.2

Video
ID : 1
Format : AVC
Format/Info : Advanced Video Codec
Format profile : High@L4.1
Format settings : CABAC / 9 Ref Frames
Format settings, CABAC : Yes
Format settings, RefFrames : 9 frames
Codec ID : V_MPEG4/ISO/AVC
Duration : 27 min 51 s
Bit rate : 1 600 kb/s
Width : 1 024 pixels
Height : 576 pixels
Display aspect ratio : 16:9
Frame rate mode : Constant
Frame rate : 25.000 FPS
Color space : YUV
Chroma subsampling : 4:2:0
Bit depth : 8 bits
Scan type : Progressive
Bits/(Pixel*Frame) : 0.109
Stream size : 311 MiB (87%)
Writing library : x264 core 146 r2538 121396c
Encoding settings : cabac=1 / ref=9 / deblock=1:-2:-1 / analyse=0x3:0x133 / me=umh / subme=9 / psy=1 / psy_rd=1.00:0.15 / mixed_ref=1 / me_range=32 / chroma_me=1 / trellis=2 / 8x8dct=1 / cqm=0 / deadzone=21,11 / fast_pskip=0 / chroma_qp_offset=-3 / threads=18 / lookahead_threads=3 / sliced_threads=0 / nr=0 / decimate=1 / interlaced=0 / bluray_compat=0 / constrained_intra=0 / bframes=9 / b_pyramid=2 / b_adapt=2 / b_bias=0 / direct=1 / weightb=1 / open_gop=0 / weightp=2 / keyint=250 / keyint_min=25 / scenecut=40 / intra_refresh=0 / rc=2pass / mbtree=0 / bitrate=1600 / ratetol=1.0 / qcomp=0.60 / qpmin=0 / qpmax=69 / qpstep=4 / cplxblur=20.0 / qblur=0.5 / ip_ratio=1.40 / pb_ratio=1.30 / aq=2:1.00
Default : Yes
Forced : No
Color range : Limited
Color primaries : BT.709
Transfer characteristics : BT.709
Matrix coefficients : BT.709

Audio
ID : 2
Format : AC-3
Format/Info : Audio Coding 3
Format settings, Endianness : Big
Codec ID : A_AC3
Duration : 27 min 51 s
Bit rate mode : Constant
Bit rate : 192 kb/s
Channel(s) : 2 channels
Channel positions : Front: L R
Sampling rate : 48.0 kHz
Frame rate : 31.250 FPS (1536 SPF)
Bit depth : 16 bits
Compression mode : Lossy
Stream size : 38.2 MiB (11%)
Service kind : Complete Main
Default : Yes
Forced : No

Когда раздача ведётся путём добавления новых серий, при каждом добавлении создётся новый торрент. Чтобы начать докачку новой серии, пользователям необходимо сделать следующее:
(1) остановить скачивание,
(2) удалить старый торрент у себя из клиента (старые серии удалять не надо),
(3) скачать новый торрент и запустить его у себя в клиенте вместо старого, при этом указать клиенту путь в старую папку, куда и должно происходить скачивание новых серий.
Ваш клиент при этом должен произвести хеширование (проверку) старой папки (если не производит сам - помогите ему сделать это), и будет докачивать только те серии, которых у вас ещё нет. Старые серии при этом не удаляются, а продолжают раздаваться!
Eсли вы уже удалили старые серии, то предотвратить повторную закачку старых серий можно, отжав галочку в соответсвующих местах при запуске нового торрента. По возможности, желательно не удалять старые серии как можно дольше, чтобы релизёр не столько продолжал раздавать старые серии, а смог сконцентрироваться на новых.

pb.wtf



Скачать Ле.Ген.Да через торрент https://i114.fastpic.ru/big/2021/0531/0d/9856926c11b08cef9987624525766f0d.jpg Скачать фильм Ле.Ген.Да через торрент бесплантно в хорошем качестве Описание: Бойца смешанных единоборств Леонид Давыдов по прозвищу Легенда ловят на допинге прямо перед подписанием контракта с UFC. Из-за ... 10 10 6
Торрент: Зарегистрирован [2021-06-11 04:04] · скачан: 30 раз
Статус: √ проверено
Размер: 5.03 GB
Как cкачать? Как скачать Ле.Ген.Да через торрент | UTorrent

% Раздел Тема Автор DL S | L
TNT serials [ 12.96 GB ] Ле.Ген.Да / Сезон: 1 / Серии: 1-16 из 16 [2021 WEBRip 1080p ] bober100 Скачать
15 | 6
TNT serials [ 5.47 GB ] Ле.Ген.Да / Сезон: 1 / Серии: 1-16 из 16 [2021 WEBRip ] bober100 Скачать
5 | 1
TNT serials [ 8.81 GB ] Ле.Ген.Да / Сезон: 1 / Серии: 1-16 из 16 [2021 WEBRip 720p ] bober100 Скачать
5 | 0
Мультсериалы [ 71.58 GB ] Кунг-фу Панда: Удивительные легенды / Kung Fu Panda: Legends of Awesomeness / Сезоны: 1-3 / Серии: 1-80 из 80 [2011-2016 Мультфильм WEB-DL 1080p] DUB bober100 Скачать
1 | 0
Зарубежные сериалы [ 13.5 GB ] Легенды завтрашнего дня / DC's Legends of Tomorrow / Сезон: 2 / Серии 1-17 из 17 [2016 WEB-DLRip-AVC] MVO [BaibaKo] GEKADOL Скачать
1 | 0
T Релизы по Парсеру [Игры, Сериалы и Фильмы и другое...] [ 2.32 GB ] Легенды завтрашнего дня / DC's Legends of Tomorrow / Сезон: 2 / Серии: 1-2 из 16 [2016 HDTVRip 720p от qqss44] MVO qqss44 (он и не он) Скачать
1 | 0
T Релизы по Парсеру [Игры, Сериалы и Фильмы и другое...] [ 1001 MB ] Легенды завтрашнего дня / DC's Legends of Tomorrow / Сезон: 2 / Серии: 1-2 из 16 [2016 WEB-DLRip от qqss44] MVO qqss44 (он и не он) Скачать
1 | 0

28-11-2019 20:33  

Отключить всю рекламу на сайте

    Дорогой пользователь! Огромная просьба, поблагодарите релизера, оцените раздачу и оставьте свои комментарий, если Вы скачали Ле.Ген.Да через торрент бесплатно! Внесите свою лепту в развитие PiratBit!
    Комментировать посты могут только пользователи прошедшие не сложную регистрацию
    Показать сообщения:    

    Ле.Ген.Да через торрент
    Скачать бесплатно Ле.Ген.Да
    Ле.Ген.Да скачать торрент
    Ле.Ген.Да смотреть онлайн
    Cкачать фильм Ле.Ген.Да бесплатно
    Ле.Ген.Да скачать торрент в хорошем качестве
    Ле.Ген.Да смотреть онлайн бесплатно в хорошем качестве


    Вы не можете начинать темы
    Вы не можете отвечать на сообщения
    Вы не можете редактировать свои сообщения
    Вы не можете удалять свои сообщения
    Вы не можете голосовать в опросах
    Вы не можете прикреплять файлы к сообщениям
    Вы можете скачивать файлы