Достать ножи: Стеклянная луковица

MVO

Добыча

Дубляж

Уэнсдэй

1 сезон

Тор

Дубляж

13 клиническая

1 сезон

Жестокая ночь

MVO

Одни из нас

1 сезон

Deluxe

pack

Рекомендуем

30

Пиратка

ВАЖНО

ВАЖНО

Ghostwire

Пиратка

jed

RePack

nioh2

RePack

RDR2

RePack

NEED FOR SPEED™ PAYBACK

RePack

скачать торрент

Кинопоиск HD

Острые козырьки 6 сезон

6 сезон

FAR CRY 6

RePack

скачать торрент

Лицензия

скачать торрент

MVO

1

1 сезон

скачать торрент

1 сезон

скачать торрент

Лицензия

  

Звездный рубеж / Cosmic Sin (Эдвард Дрэйк) [2021, Фантастика, боевик, HDRip-AVC] Дубляж, AVO [iTunes, А. Дольский] от MediaBit

Звездный рубеж через торрент pb.wtf

Раздают: 1 [ 0 KB/s ]
Размер: 1.45 GB | Добавлен: 1 год 8 мес. назад | Торрент скачан:252 раза
Смотреть онлайн | Скачать | Поддержите нас   

02-06-2021 19:05 Звездный рубеж Скачать торрент  


Звездный рубеж / Cosmic Sin
Название: Звездный рубеж
Оригинальное название: Cosmic Sin
Год выхода: 2021
Жанр: Фантастика, боевик
Режиссер: Эдвард Дрэйк

В ролях: Фрэнк Грилло, Брюс Уиллис, Брэндон Томас Ли, Кори Лардж, К.Дж. Перри, Перри Ривз, Локлин Манро, Костас Мэндилор, Ева Де Доминичи, Аделаида Кейн, Сара Мэй Соммерс, Тревор Гретцки, Кристиан Хикс ,Марк Райнард, Роберт Ланен, Тревор Бразертон, Эрик Борк, Эверли Лардж, Табита Вудман

Описание: 2524 год. Человечество сталкивается с расой инопланетных существ, но уже при первом контакте становится ясно, что они куда более продвинутые, чем Homo sapiens. Перед лицом неизвестности земляне испытывают страх и поспешно наносят первый удар. Джеймс Форд и небольшая группа храбрецов отправляются на территорию потенциальных захватчиков с целью их уничтожения. Возможно, им стоило прийти в гости с миром?



Страна: США
Студия: 308 Ent, BondIt Media Capital, Buffalo 8 Productions
Продолжительность: 01:28:13
Перевод: Дублированный - iTunes , Aвторский (одноголосый) - А. Дольский



Информация о файле:
Кодек: AVC
Формат: MKV
Качество: HDRip-AVC
Видео: MPEG-4 AVC, 1024x428, 23.976 fps, 1521 kbps
Аудио RU: AC3, 6 ch, 48 kHz, 384 kbps | iTunes
Аудио RU: AC3, 6 ch, 48 kHz, 448 kbps | А. Дольский
Субтитры: Aнглийские
Навигация по главам: Да

x264 info: frame I:1017 Avg QP:14.70 size: 63439
x264 info: frame P:29614 Avg QP:19.07 size: 18305
x264 info: frame B:96279 Avg QP:22.25 size: 4146
General
Unique ID : 204465070895687008736079465716484122198 (0x99D28A4E9B089C5D2ACF76EFC65BA656)
Complete name : D:uTorrentРипы_от_wolf1245_MediaBitZvezdnij.rubez.2021.Дубляж.AVO.HDRip-AVC.[wolf1245.MediaBit].mkv
Format : Matroska
Format version : Version 4
File size : 1.45 GiB
Duration : 1 h 28 min
Overall bit rate : 2 354 kb/s
Movie name : Zvezdnij.rubez.2021.Дубляж.AVO.HDRip-AVC.[wolf1245.MediaBit]
Encoded date : UTC 2021-06-02 18:50:27
Writing application : mkvmerge v57.0.0 ('Till The End') 64-bit
Writing library : libebml v1.4.2 + libmatroska v1.6.4
Video
ID : 1
Format : AVC
Format/Info : Advanced Video Codec
Format profile : [email protected]
Format settings : CABAC / 14 Ref Frames
Format settings, CABAC : Yes
Format settings, Reference frames : 14 frames
Codec ID : V_MPEG4/ISO/AVC
Duration : 1 h 28 min
Bit rate : 1 521 kb/s
Width : 1 024 pixels
Height : 428 pixels
Display aspect ratio : 2.40:1
Frame rate mode : Constant
Frame rate : 23.976 (24000/1001) FPS
Color space : YUV
Chroma subsampling : 4:2:0
Bit depth : 8 bits
Scan type : Progressive
Bits/(Pixel*Frame) : 0.145
Stream size : 959 MiB (65%)
Title : [wolf1245.MediaBit]
Writing library : x264 core 157 r2958 57baac4
Encoding settings : cabac=1 / ref=14 / deblock=1:-3:-3 / analyse=0x3:0x133 / me=umh / subme=11 / psy=1 / psy_rd=1.00:0.07 / mixed_ref=1 / me_range=48 / chroma_me=1 / trellis=2 / 8x8dct=1 / cqm=0 / deadzone=21,11 / fast_pskip=1 / chroma_qp_offset=-3 / threads=10 / lookahead_threads=2 / sliced_threads=0 / nr=0 / decimate=1 / interlaced=0 / bluray_compat=0 / constrained_intra=0 / bframes=12 / b_pyramid=2 / b_adapt=2 / b_bias=0 / direct=3 / weightb=1 / open_gop=0 / weightp=2 / keyint=240 / keyint_min=24 / scenecut=40 / intra_refresh=0 / rc_lookahead=60 / rc=2pass / mbtree=1 / bitrate=1521 / ratetol=1.0 / qcomp=0.60 / qpmin=0 / qpmax=69 / qpstep=4 / cplxblur=20.0 / qblur=0.5 / vbv_maxrate=50000 / vbv_bufsize=62500 / nal_hrd=none / filler=0 / ip_ratio=1.40 / aq=1:0.80
Language : English
Default : Yes
Forced : No
Color range : Limited
Color primaries : BT.709
Transfer characteristics : BT.709
Matrix coefficients : BT.709
Audio #1
ID : 2
Format : AC-3
Format/Info : Audio Coding 3
Commercial name : Dolby Digital
Codec ID : A_AC3
Duration : 1 h 28 min
Bit rate mode : Constant
Bit rate : 384 kb/s
Channel(s) : 6 channels
Channel layout : L R C LFE Ls Rs
Sampling rate : 48.0 kHz
Frame rate : 31.250 FPS (1536 SPF)
Bit depth : 16 bits
Compression mode : Lossy
Stream size : 242 MiB (16%)
Title : Дубляж | iTunes
Language : Russian
Service kind : Complete Main
Default : Yes
Forced : No
Audio #2
ID : 3
Format : AC-3
Format/Info : Audio Coding 3
Commercial name : Dolby Digital
Codec ID : A_AC3
Duration : 1 h 28 min
Bit rate mode : Constant
Bit rate : 448 kb/s
Channel(s) : 6 channels
Channel layout : L R C LFE Ls Rs
Sampling rate : 48.0 kHz
Frame rate : 31.250 FPS (1536 SPF)
Bit depth : 16 bits
Compression mode : Lossy
Stream size : 283 MiB (19%)
Title : AVO | A. Дольский
Language : Russian
Service kind : Complete Main
Default : No
Forced : No
Text
ID : 4
Format : UTF-8
Codec ID : S_TEXT/UTF8
Codec ID/Info : UTF-8 Plain Text
Duration : 1 h 22 min
Bit rate : 44 b/s
Count of elements : 961
Stream size : 27.0 KiB (0%)
Title : English-SRT
Language : English
Default : No
Forced : No
Menu
00:00:00.000 : :Chapter 01
00:07:28.656 : :Chapter 02
00:14:01.340 : :Chapter 03
00:19:38.010 : :Chapter 04
00:29:02.907 : :Chapter 05
00:35:38.511 : :Chapter 06
00:41:59.892 : :Chapter 07
00:50:04.876 : :Chapter 08
00:57:09.551 : :Chapter 09
01:04:17.144 : :Chapter 10
01:09:38.757 : :Chapter 11
01:16:40.178 : :Chapter 12
01:25:28.748 : :Chapter 13
Релиз от: amp; MediaBit




Скачать Звездный рубеж через торрент https://i114.fastpic.ru/big/2021/0602/ca/4d4eb9f553168e4c3cbd8a4aff4fc9ca.jpg Скачать, смотреть онлайн Звездный рубеж бесплантно в хорошем качестве Описание: 2524 год. Человечество сталкивается с расой инопланетных существ, но уже при первом контакте становится ясно, что они куда ... 10 10 7
Торрент: Зарегистрирован [2021-06-02 19:05] · скачан: 252 раз
Статус: √ проверено
Размер: 1.45 GB
Как cкачать? Как скачать Звездный рубеж через торрент | UTorrent

28-11-2019 20:33  


Отключить вcю реклaмy на сайте, в т.ч. и в плеере онлайн просмотра!

    Дорогой пользователь! Огромная просьба, поблагодарите релизера, оцените раздачу и оставьте свои комментарий, если Вы скачали Звездный рубеж через торрент бесплатно!!
    Комментировать посты могут только пользователи прошедшие не сложную регистрацию
    Показать сообщения:    


    Звездный рубеж через торрент
    Скачать бесплатно Звездный рубеж
    Звездный рубеж скачать торрент
    Звездный рубеж смотреть онлайн
    Cкачать фильм Звездный рубеж бесплатно
    Звездный рубеж скачать торрент в хорошем качестве
    Звездный рубеж смотреть онлайн бесплатно в хорошем качестве
    Вы не можете начинать темы
    Вы не можете отвечать на сообщения
    Вы не можете редактировать свои сообщения
    Вы не можете удалять свои сообщения
    Вы не можете голосовать в опросах
    Вы не можете прикреплять файлы к сообщениям
    Вы можете скачивать файлы
    Звездный рубеж / Cosmic Sin [2021, Фантастика, боевик, HDRip-AVC] Дубляж, AVO [iTunes, А. Дольский] от MediaBit смотреть онлайн, скачать торрент picoco.icu