1 сезон

3 сезон

iTunes

1

Line

MVO

iTunes

13

1 сезон

RePack

30

Deluxe

pack

Лицензия

ВАЖНО

ИГРА 18+

pack

RePack

MK11

RePack

jed

RePack

fifa19

RePack

RDR2

RePack

NEED FOR SPEED™ PAYBACK

4 сезон

9 сезон

Бесстыжие 9 сезон

Все сериалы

все сериалы на PB.wtf

RePack

FAR CRY 5

Anonymous, доброе утро, мы катастрофически не успеваем собрать деньги на оплату серверов, помогите нам пожалуйста 5,10,15р., для нас важна любая помощь . В качестве благодарности мы отключим Вам всю рекламу на сайте (укажите свой ник в строку Ваше имя)!

×
  
Magnet ссылка

Пила: Спираль / Spiral: From the Book of Saw (Даррен Линн Боусман) [2021, Ужасы, детектив, триллер, UHD BDRemux 2160p] DUB [СинеЛаб СаундМикс] pb.wtf

Пила: Спираль через торрент pb.wtf

Раздают: 3 [ 636 KB/s ]
Размер: 53.29 GB | Добавлен: 7 д. назад | Торрент скачан:10 раз
Скачать  

03-06-2021 11:23 Пила: Спираль Скачать торрент  

Пила: Спираль
Spiral: From the Book of Saw

Год выпуска: 2021
Страна: США, Канада
Студия: Lionsgate, Twisted Pictures, Serendipity Productions
Жанр: Ужасы, детектив, триллер
Продолжительность: 01:33:06
Перевод: Дублированный | СинеЛаб СаундМикс
Субтитры: Русские (форсированные, полные [Enigma]), английские

Режиссер: Даррен Линн Боусман

rating

В ролях: Крис Рок, Сэмюэл Л. Джексон, Морган Дэвид Джонс, Али Джонсон, Дэн Петрониевич, Ричард Зэппери, Эди Инксеттер, Лейла Ли, Макс Мингелла, Кристофер Таи

Описание: Импульсивный детектив полиции Нью-Йорка Зик Бэнкс всю жизнь пытается вырваться из тени своего отца, прославленного ветерана правоохранительных органов. Однажды Бэнксу и его новому напарнику поручают расследование серии жестоких убийств, которые странным образом напоминают преступления прошлых лет. Так они оказываются в эпицентре зловещей игры, и цена проигрыша в ней — человеческая жизнь.

Качество: UHD BDRemux 2160p
Формат: MKV

Видео: 3840x2160 at 23.976 fps, MPEG-H HEVC HDR Video, ~ 76500 kbps avg
Аудио #01: 48 kHz, AC3, 5.1, 448 Kbps | Дублированный (СинеЛаб СаундМикс) | RUS |
Аудио #02: 48 kHz, TrueHD, 7.1, 4299 Kbps | Оригинал | ENG |
Аудио #03: 48 kHz, AC3, 5.1, 640 Kbps | Оригинал | ENG |
скриншот  скриншот  скриншот  скриншот  скриншот  

General
Unique ID : 133407494951980111200306465358544567306 (0x645D5953B287DB11A8CB37F0A982FC0A)
Complete name : G:VideoSpiral.From.the.Book.of.Saw.2021.BDREMUX.2160p.HDR.seleZen.mkv
Format : Matroska
Format version : Version 4
File size : 53.3 GiB
Duration : 1 h 33 min
Overall bit rate mode : Variable
Overall bit rate : 81.9 Mb/s
Movie name : Spiral From the Book of Saw 2021 from seleZen
Encoded date : UTC 2021-07-21 22:38:07
Writing application : mkvmerge v53.0.0 ('Fool's Gold') 64-bit
Writing library : libebml v1.4.1 + libmatroska v1.6.2

Video
ID : 1
Format : HEVC
Format/Info : High Efficiency Video Coding
Format profile : Main 10@L5.1@High
HDR format : SMPTE ST 2086, HDR10 compatible
Codec ID : V_MPEGH/ISO/HEVC
Duration : 1 h 33 min
Bit rate : 76.5 Mb/s
Width : 3 840 pixels
Height : 2 160 pixels
Display aspect ratio : 16:9
Frame rate mode : Constant
Frame rate : 23.976 (24000/1001) FPS
Color space : YUV
Chroma subsampling : 4:2:0 (Type 2)
Bit depth : 10 bits
Bits/(Pixel*Frame) : 0.385
Stream size : 49.7 GiB (93%)
Language : English
Default : Yes
Forced : No
Color range : Limited
Color primaries : BT.2020
Transfer characteristics : PQ
Matrix coefficients : BT.2020 non-constant
Mastering display color pri : Display P3
Mastering display luminance : min: 0.0050 cd/m2, max: 1000 cd/m2
Maximum Content Light Level : 907 cd/m2
Maximum Frame-Average Light : 185 cd/m2

Audio #1
ID : 2
Format : AC-3
Format/Info : Audio Coding 3
Commercial name : Dolby Digital
Codec ID : A_AC3
Duration : 1 h 33 min
Bit rate mode : Constant
Bit rate : 448 kb/s
Channel(s) : 6 channels
Channel layout : L R C LFE Ls Rs
Sampling rate : 48.0 kHz
Frame rate : 31.250 FPS (1536 SPF)
Compression mode : Lossy
Stream size : 298 MiB (1%)
Title : Dub [СинеЛаб СаундМикс]
Language : Russian
Service kind : Complete Main
Default : Yes
Forced : Yes

Audio #2
ID : 3
Format : MLP FBA 16-ch
Format/Info : Meridian Lossless Packing FBA with 16-channel presentation
Commercial name : Dolby TrueHD with Dolby Atmos
Codec ID : A_TRUEHD
Duration : 1 h 33 min
Bit rate mode : Variable
Bit rate : 4 299 kb/s
Maximum bit rate : 9 057 kb/s
Channel(s) : 8 channels
Channel layout : L R C LFE Ls Rs Lb Rb
Sampling rate : 48.0 kHz
Frame rate : 1 200.000 FPS (40 SPF)
Compression mode : Lossless
Stream size : 2.80 GiB (5%)
Title : Original
Language : English
Default : No
Forced : No
Number of dynamic objects : 11
Bed channel count : 1 channel
Bed channel configuration : LFE

Audio #3
ID : 4
Format : AC-3
Format/Info : Audio Coding 3
Commercial name : Dolby Digital
Format settings : Dolby Surround EX
Codec ID : A_AC3
Duration : 1 h 33 min
Bit rate mode : Constant
Bit rate : 640 kb/s
Channel(s) : 6 channels
Channel layout : L R C LFE Ls Rs
Sampling rate : 48.0 kHz
Frame rate : 31.250 FPS (1536 SPF)
Compression mode : Lossy
Stream size : 426 MiB (1%)
Language : English
Service kind : Complete Main
Default : No
Forced : No

Text #1
ID : 5
Format : UTF-8
Codec ID : S_TEXT/UTF8
Codec ID/Info : UTF-8 Plain Text
Duration : 1 h 17 min
Bit rate : 3 b/s
Count of elements : 40
Stream size : 1.85 KiB (0%)
Title : Forced
Language : Russian
Default : Yes
Forced : Yes

Text #2
ID : 6
Format : UTF-8
Codec ID : S_TEXT/UTF8
Codec ID/Info : UTF-8 Plain Text
Duration : 1 h 25 min
Bit rate : 99 b/s
Count of elements : 1260
Stream size : 62.2 KiB (0%)
Title : Full (Enigma)
Language : Russian
Default : No
Forced : No

Text #3
ID : 7
Format : UTF-8
Codec ID : S_TEXT/UTF8
Codec ID/Info : UTF-8 Plain Text
Duration : 1 h 25 min
Bit rate : 61 b/s
Count of elements : 1271
Stream size : 38.3 KiB (0%)
Title : Full
Language : English
Default : No
Forced : No

Text #4
ID : 8
Format : UTF-8
Codec ID : S_TEXT/UTF8
Codec ID/Info : UTF-8 Plain Text
Duration : 1 h 26 min
Bit rate : 67 b/s
Count of elements : 1440
Stream size : 42.6 KiB (0%)
Title : SDH
Language : English
Default : No
Forced : No

Menu
00:00:00.000 : en:Глава 01
00:05:45.428 : en:Глава 02
00:11:25.476 : en:Глава 03
00:16:56.599 : en:Глава 04
00:23:20.190 : en:Глава 05
00:27:47.416 : en:Глава 06
00:34:08.213 : en:Глава 07
00:38:44.656 : en:Глава 08
00:45:15.171 : en:Глава 09
00:49:44.315 : en:Глава 10
00:55:25.489 : en:Глава 11
00:59:14.217 : en:Глава 12
01:06:47.295 : en:Глава 13
01:09:19.072 : en:Глава 14
01:15:18.723 : en:Глава 15
01:20:22.818 : en:Глава 16

pb.wtf



Скачать Пила: Спираль через торрент https://d.radikal.ru/d40/2107/58/bffcc03d78eb.jpg Скачать фильм Пила: Спираль через торрент бесплантно в хорошем качестве Описание: Импульсивный детектив полиции Нью-Йорка Зик Бэнкс всю жизнь пытается вырваться из тени своего отца, прославленного ветерана ... 10 10 10
Торрент: Зарегистрирован [2021-07-22 01:27] · скачан: 10 раз
Статус: √ проверено
Размер: 53.29 GB
Как cкачать? Как скачать Пила: Спираль через торрент | UTorrent

% Раздел Тема Автор DL S | L
Фильмы [HD 720p, 1080p] (Хороший звук DUB, MVO) [ 3.22 GB ] Пила: Спираль / Spiral: From the Book of Saw [2021 BDRip 720p Оригинал] winchester00100010 Скачать
12 | 0
Фильмы [HD 720p, 1080p] (Хороший звук DUB, MVO) [ 7.2 GB ] Пила: Спираль / Spiral: From the Book of Saw [2021 BDRip 1080p] DUB [СинеЛаб СаундМикс] bober100 Скачать
10 | 1
Фильмы 2021 [DVDrip, WEB-DLRip, HDrip] (DUB, MVO) [ 1.46 GB ] Пила: Спираль / Spiral: From the Book of Saw [2021 BDRip] - [СинеЛаб СаундМикс] Twi7ter Скачать
30 | 0
Фильмы 2021 [DVDrip, WEB-DLRip, HDrip] (DUB, MVO) [ 1.46 GB ] Пила: Спираль / Spiral: From the Book of Saw [2021 BDRip] DUB [СинеЛаб СаундМикс] bober100 Скачать
3 | 0
Фильмы 2021 [DVDrip, WEB-DLRip, HDrip] (DUB, MVO) [ 746 MB ] Пила: Спираль / Spiral: From the Book of Saw [2021 BDRip] DUB [СинеЛаб СаундМикс] bober100 Скачать
3 | 0
Фильмы (Blu-ray, BD-Remux, HDDVD) [ 25.51 GB ] Пила: Спираль / Spiral: From the Book of Saw [2021 BD Remux 1080p] DUB [СинеЛаб СаундМикс] bober100 Скачать
4 | 1
Фильмы [HD 720p, 1080p] (Хороший звук DUB, MVO) [ 3.96 GB ] Пила: Спираль / Spiral: From the Book of Saw [2021 BDRip 720p] DUB [СинеЛаб СаундМикс] bober100 Скачать
4 | 0

28-11-2019 20:33  

Отключить всю рекламу на сайте


    Дорогой пользователь! Огромная просьба, поблагодарите релизера, оцените раздачу и оставьте свои комментарий, если Вы скачали Пила: Спираль через торрент бесплатно! Внесите свою лепту в развитие PiratBit!
    Комментировать посты могут только пользователи прошедшие не сложную регистрацию
    Показать сообщения:    

    Пила: Спираль через торрент
    Скачать бесплатно Пила: Спираль
    Пила: Спираль скачать торрент
    Пила: Спираль смотреть онлайн
    Cкачать фильм Пила: Спираль бесплатно
    Пила: Спираль скачать торрент в хорошем качестве
    Пила: Спираль смотреть онлайн бесплатно в хорошем качестве


    Вы не можете начинать темы
    Вы не можете отвечать на сообщения
    Вы не можете редактировать свои сообщения
    Вы не можете удалять свои сообщения
    Вы не можете голосовать в опросах
    Вы не можете прикреплять файлы к сообщениям
    Вы можете скачивать файлы