Присоединяйтесь к нам в Telegram!, здесь всегда актуальный адрес сайта, оперативная поддержка и многое другое!!

>

5.9

iTunes

7.4

iTunes

9.4

1 сезон

1

7.4

2 сезон

7.2

iTunes

7.3

1 сезон

13

6.1

iTunes

8.3

Пиратка

30

ULTIMATE

pack

9.9

Лицензия

ВАЖНО

ИГРА 18+

pack

7.3

RePack

MK11

7.7

RePack

jed

7.8

RePack

fifa19

8.5

RePack

RDR2

RePack

NEED FOR SPEED™ PAYBACK

5 сезон

9 сезон

Бесстыжие 9 сезон

Все сериалы

все сериалы на PB.wtf

RePack

FAR CRY 5

Anonymous, доброе утро, мы катастрофически не успеваем собрать деньги на оплату серверов, помогите нам пожалуйста 5,10,15р., для нас важна любая помощь . В качестве благодарности мы отключим Вам всю рекламу на сайте (укажите свой ник в строку Ваше имя)!

×
  
Magnet ссылка

Земля / Land (Робин Райт) [2021, Драма, HDRip-AVC] DUB [iTunes] от MediaBit pb.wtf

Земля через торрент pb.wtf

Раздают: 1 [ 0 KB/s ]
Размер: 2.06 GB | Добавлен: 6 мес. назад | Торрент скачан:58 раз
Смотреть онлайн Земля | Скачать    Ребята, помогите собрать деньги на оплату серверов!!!

04-06-2021 19:35 Земля Скачать торрент  


Земля / Land
Информация о фильме:
Название: Земля
Оригинальное название: Land
Год выхода: 2021
Жанр: Драма
Режиссер: Робин Райт

В ролях: Робин Райт, Ким Диккенс, Уоррен Кристи, Демиан Бишир, Брэд Лелэнд, Финлэй Войтак-Хиссонг, Дэйв Тримбл, Лаура Йенга, Сара Дон Пледж, Ваттанак Хун, Барб Митчелл, Дэннис Корри, Валери Планше, Рэндольф Уэст, Бад Класки, Джилл Мария Робинсон
Описание: Жизнь Эдди Матис мгновенно рушится в силу непредвиденных обстоятельств. Теперь она больше не может существовать в прежнем мире и покидает свой дом, чтобы обосноваться в хижине посреди Скалистых гор. Чуть не отправившись на тот свет, она находит спасение в лице охотника, который помогает ей отыскать новый смысл в жизни.



Страна: США
Студия: Big Beach Films, Cinetic Media, Nomadic Pictures
Продолжительность: 01:28:51
Перевод: Дублированный - iTunes



Информация о файле:
Кодек: AVC
Формат: MKV
Качество: HDRip-AVC
Видео: MPEG-4 AVC, 1024x576, 23.976 fps, 2469 kb/s
Аудио RU: AC3, 6 ch, 48 kHz, 384 kbps
Аудио EN: AC3, 6 ch, 48 kHz, 448 kbps
Субтитры: Aнглийские, испанские, французские
Навигация по главам: Да

x264 info: frame I:897 Avg QP:10.98 size:132157
x264 info: frame P:24960 Avg QP:14.21 size: 33756
x264 info: frame B:101964 Avg QP:17.73 size: 6644
General
Unique ID : 297178546143033385196704162505130368367 (0xDF92818EC3348E3527D038F91EA1DD6F)
Complete name : D:uTorrentРипы_от_wolf1245_MediaBit Land.2021.DUB.iTunes.HDRip-AVC.[wolf1245.MediaBit].mkv
Format : Matroska
Format version : Version 4
File size : 2.06 GiB
Duration : 1 h 28 min
Overall bit rate : 3 312 kb/s
Movie name : Land.2021.DUB.iTunes.HDRip-AVC.[wolf1245.MediaBit]
Encoded date : UTC 2021-06-04 19:14:07
Writing application : mkvmerge v57.0.0 ('Till The End') 64-bit
Writing library : libebml v1.4.2 + libmatroska v1.6.4
Video
ID : 1
Format : AVC
Format/Info : Advanced Video Codec
Format profile : High@L4.1
Format settings : CABAC / 14 Ref Frames
Format settings, CABAC : Yes
Format settings, Reference frames : 14 frames
Codec ID : V_MPEG4/ISO/AVC
Duration : 1 h 28 min
Bit rate : 2 469 kb/s
Width : 1 024 pixels
Height : 576 pixels
Display aspect ratio : 5:3
Frame rate mode : Constant
Frame rate : 23.976 (24000/1001) FPS
Color space : YUV
Chroma subsampling : 4:2:0
Bit depth : 8 bits
Scan type : Progressive
Bits/(Pixel*Frame) : 0.175
Stream size : 1.53 GiB (74%)
Title : .[wolf1245.MediaBit]
Writing library : x264 core 157 r2958 57baac4
Encoding settings : cabac=1 / ref=14 / deblock=1:-3:-3 / analyse=0x3:0x133 / me=umh / subme=11 / psy=1 / psy_rd=1.00:0.07 / mixed_ref=1 / me_range=48 / chroma_me=1 / trellis=2 / 8x8dct=1 / cqm=0 / deadzone=21,11 / fast_pskip=1 / chroma_qp_offset=-3 / threads=10 / lookahead_threads=2 / sliced_threads=0 / nr=0 / decimate=1 / interlaced=0 / bluray_compat=0 / constrained_intra=0 / bframes=12 / b_pyramid=2 / b_adapt=2 / b_bias=0 / direct=3 / weightb=1 / open_gop=0 / weightp=2 / keyint=240 / keyint_min=24 / scenecut=40 / intra_refresh=0 / rc_lookahead=60 / rc=2pass / mbtree=1 / bitrate=2469 / ratetol=1.0 / qcomp=0.60 / qpmin=0 / qpmax=69 / qpstep=4 / cplxblur=20.0 / qblur=0.5 / vbv_maxrate=50000 / vbv_bufsize=62500 / nal_hrd=none / filler=0 / ip_ratio=1.40 / aq=1:0.80
Language : English
Default : Yes
Forced : No
Color range : Limited
Color primaries : BT.709
Matrix coefficients : BT.709
Audio #1
ID : 2
Format : AC-3
Format/Info : Audio Coding 3
Commercial name : Dolby Digital
Codec ID : A_AC3
Duration : 1 h 28 min
Bit rate mode : Constant
Bit rate : 384 kb/s
Channel(s) : 6 channels
Channel layout : L R C LFE Ls Rs
Sampling rate : 48.0 kHz
Frame rate : 31.250 FPS (1536 SPF)
Bit depth : 16 bits
Compression mode : Lossy
Stream size : 244 MiB (12%)
Title : DUB | iTunes
Language : Russian
Service kind : Complete Main
Default : Yes
Forced : No
Audio #2
ID : 3
Format : AC-3
Format/Info : Audio Coding 3
Commercial name : Dolby Digital
Codec ID : A_AC3
Duration : 1 h 28 min
Bit rate mode : Constant
Bit rate : 448 kb/s
Channel(s) : 6 channels
Channel layout : L R C LFE Ls Rs
Sampling rate : 48.0 kHz
Frame rate : 31.250 FPS (1536 SPF)
Bit depth : 16 bits
Compression mode : Lossy
Stream size : 285 MiB (14%)
Title : Original
Language : English
Service kind : Complete Main
Default : No
Forced : No
Text #1
ID : 4
Format : UTF-8
Codec ID : S_TEXT/UTF8
Codec ID/Info : UTF-8 Plain Text
Duration : 1 h 26 min
Bit rate : 19 b/s
Count of elements : 440
Stream size : 12.2 KiB (0%)
Title : SRT
Language : English
Default : No
Forced : No
Text #2
ID : 5
Format : PGS
Muxing mode : zlib
Codec ID : S_HDMV/PGS
Codec ID/Info : Picture based subtitle format used on BDs/HD-DVDs
Duration : 1 h 26 min
Bit rate : 15.8 kb/s
Count of elements : 1108
Stream size : 9.71 MiB (0%)
Language : English
Default : No
Forced : No
Text #3
ID : 6
Format : PGS
Muxing mode : zlib
Codec ID : S_HDMV/PGS
Codec ID/Info : Picture based subtitle format used on BDs/HD-DVDs
Duration : 1 h 28 min
Bit rate : 11.6 kb/s
Count of elements : 642
Stream size : 7.32 MiB (0%)
Language : French
Default : No
Forced : No
Text #4
ID : 7
Format : PGS
Muxing mode : zlib
Codec ID : S_HDMV/PGS
Codec ID/Info : Picture based subtitle format used on BDs/HD-DVDs
Duration : 1 h 28 min
Bit rate : 11.0 kb/s
Count of elements : 660
Stream size : 6.92 MiB (0%)
Language : Spanish
Default : No
Forced : No
Menu
00:00:00.000 : :Chapter 01
00:06:36.730 : :Chapter 02
00:11:17.302 : :Chapter 03
00:14:57.313 : :Chapter 04
00:20:39.530 : :Chapter 05
00:23:53.140 : :Chapter 06
00:28:37.341 : :Chapter 07
00:32:24.943 : :Chapter 08
00:37:08.852 : :Chapter 09
00:39:08.721 : :Chapter 10
00:45:22.803 : :Chapter 11
00:47:51.035 : :Chapter 12
00:53:32.459 : :Chapter 13
00:59:18.513 : :Chapter 14
01:01:19.718 : :Chapter 15
01:07:35.593 : :Chapter 16
01:11:07.138 : :Chapter 17
01:17:13.337 : :Chapter 18
01:23:09.776 : :Chapter 19
01:24:27.854 : :Chapter 20
Релиз от: &
Автор релиза:
pb.wtf



Скачать Земля через торрент http://d.radikal.ru/d24/2106/df/532819fbcd6f.jpg Скачать, смотреть онлайн Земля бесплантно в хорошем качестве Описание: Жизнь Эдди Матис мгновенно рушится в силу непредвиденных обстоятельств. Теперь она больше не может существовать в прежнем мире ... 10 10 2
Торрент: Зарегистрирован [2021-06-04 19:35] · скачан: 58 раз
Статус: √ проверено
Размер: 2.06 GB
Как cкачать? Как скачать Земля через торрент | UTorrent

% Раздел Тема Автор DL S | L
Фильмы 2019-2020 [DVDrip, WEB-DLRip, HDrip] (DUB, MVO) [ 2.05 GB ] Земля кочевников / Nomadland [2020 HDRip-AVC] MVO [HDRezka Studio] от MediaBit Lithuania Скачать
2 | 0
Фильмы 2019-2020 [DVDrip, WEB-DLRip, HDrip] (DUB, MVO) [ 2.05 GB ] Дрожь земли 7: Остров крикунов / Tremors: Shrieker Island [2020 HDRip-AVC] от MediaBit Lithuania Скачать
2 | 0

28-11-2019 20:33  

Отключить всю рекламу на сайте

    Дорогой пользователь! Огромная просьба, поблагодарите релизера, оцените раздачу и оставьте свои комментарий, если Вы скачали Земля через торрент бесплатно!
    Комментировать посты могут только пользователи прошедшие не сложную регистрацию
    Показать сообщения:    

    Земля через торрент
    Скачать бесплатно Земля
    Земля скачать торрент
    Земля смотреть онлайн
    Cкачать фильм Земля бесплатно
    Земля скачать торрент в хорошем качестве
    Земля смотреть онлайн бесплатно в хорошем качестве


    Вы не можете начинать темы
    Вы не можете отвечать на сообщения
    Вы не можете редактировать свои сообщения
    Вы не можете удалять свои сообщения
    Вы не можете голосовать в опросах
    Вы не можете прикреплять файлы к сообщениям
    Вы можете скачивать файлы