1 сезон

3 сезон

iTunes

1

iTunes

DUB Netflix

iTunes

13

1 сезон

RePack

30

Deluxe

pack

Легкие деньги

ВАЖНО

ИГРА 18+

pack

RePack

MK11

RePack

jed

RePack

fifa19

RePack

RDR2

RePack

NEED FOR SPEED™ PAYBACK

4 сезон

9 сезон

Бесстыжие 9 сезон

Все сериалы

все сериалы на PB.wtf

RePack

FAR CRY 5

Anonymous, доброе утро, мы не успеваем до 1 числа собрать деньги на оплату серверов, помогите нам пожалуйста в это трудное время. В качестве благодарности мы отключим Вам всю рекламу на сайте (укажите свой ник в строку Ваше имя)!

×
  
Magnet ссылка

Великий / Minamata (Эндрю Левитас) [2020, Драма, биография, WEBRip 720p] DUB [IVI] pb.wtf

Великий через торрент pb.wtf

Раздают: 12 [ 421 KB/s ]
Размер: 2.27 GB | Добавлен: 10 д. назад | Торрент скачан:140 раз
Скачать  

05-06-2021 03:39 Великий Скачать торрент  

Великий | Minamata
Год выпуска: 2020
Страна: Великобритания, США, ОАЭ
Студия: Metalwork Pictures, Head Gear Films, Infinitum Nihil
Жанр: Драма, биография
Продолжительность: 01:50:36
Перевод: Дублированный | IVI
Субтитры: отсутствуют

Режиссер: Эндрю Левитас

rating

В ролях: Джонни Депп, Акико Ивасэ, Кэтерин Дженкинс, Билл Найи, Минами, Таданобу Асано, Рё Касэ, Хироюки Санада, Дзюн Кунимура, Ёсукэ Хосои, Лили Робинсон, Масаёси Ханэда, Тацуя Хирано, Кэнта Огава, Сюнсукэ Окубо, Кодзи Оно, Бомбер Хёрли-Смит, Котаро Судзуки, Тацуя Тагава, Ана Тркуля

Описание: 1970-е. Военный фотограф Юджин Смит по заданию журнала Life возвращается в Японию, где в небольшом прибрежном городке Минамата разворачивается экологическая катастрофа. Именно оттуда Смит сделает репортаж, который потрясёт весь мир, снимет величайшие кадры в истории фотографии и пройдет трудный путь преодоления и познания себя.

Качество: WEBRip 720p
Формат: MKV

Видео: MPEG-4 AVC, 2569 Кбит/с, 1280x690
Аудио: 48 kHz, AC3 Dolby Digital, 3/2 (L,C,R,l,r) + LFE ch, ~384 kbps
скриншот  скриншот  скриншот  скриншот  

Общее
Уникальный идентификатор : 58164666864756780580642414453424531763 (0x2BC21B7C13B44E33221F013531022933)
Полное имя : D:Velikij.2020.WEB-DL.720p.mkv
Формат : Matroska
Версия формата : Version 4
Размер файла : 2,27 Гбайт
Продолжительность : 1 ч. 50 м.
Общий поток : 2 942 Кбит/сек
Название фильма : Velikij.2020.WEB-DL.720p
Дата кодирования : UTC 2021-06-05 02:26:16
Программа кодирования : mkvmerge v57.0.0 ('Till The End') 64-bit
Библиотека кодирования : libebml v1.4.2 + libmatroska v1.6.4
Attachments : poster.jpg

Видео
Идентификатор : 1
Формат : AVC
Формат/Информация : Advanced Video Codec
Профиль формата : High@L4
Настройки формата : CABAC / 4 Ref Frames
Параметр CABAC формата : Да
Параметр RefFrames формата : 4 кадра
Идентификатор кодека : V_MPEG4/ISO/AVC
Продолжительность : 1 ч. 50 м.
Битрейт : 2 569 Кбит/сек
Ширина : 1 280 пикселей
Высота : 690 пикселей
Соотношение сторон : 1,85:1
Режим частоты кадров : Постоянный
Частота кадров : 25,000 кадров/сек
Цветовое пространство : YUV
Субдискретизация насыщенности : 4:2:0
Битовая глубина : 8 бит
Тип развёртки : Прогрессивная
Бит/(Пиксели*Кадры) : 0.116
Размер потока : 1,97 Гбайт (87%)
Библиотека кодирования : x264 core 152 r2854 e9a5903
Настройки программы : cabac=1 / ref=3 / deblock=1:0:0 / analyse=0x3:0x113 / me=hex / subme=7 / psy=1 / psy_rd=1.00:0.00 / mixed_ref=1 / me_range=16 / chroma_me=1 / trellis=1 / 8x8dct=1 / cqm=0 / deadzone=21,11 / fast_pskip=1 / chroma_qp_offset=-2 / threads=22 / lookahead_threads=3 / sliced_threads=0 / nr=0 / decimate=1 / interlaced=0 / bluray_compat=0 / constrained_intra=0 / bframes=6 / b_pyramid=2 / b_adapt=1 / b_bias=0 / direct=1 / weightb=1 / open_gop=0 / weightp=2 / keyint=50 / keyint_min=26 / scenecut=0 / intra_refresh=0 / rc_lookahead=40 / rc=2pass / mbtree=1 / bitrate=2569 / ratetol=1.0 / qcomp=0.60 / qpmin=0 / qpmax=69 / qpstep=4 / cplxblur=20.0 / qblur=0.5 / vbv_maxrate=3854 / vbv_bufsize=10279 / nal_hrd=none / filler=0 / ip_ratio=1.40 / aq=1:1.00
Default : Да
Forced : Нет

Аудио
Идентификатор : 2
Формат : AC-3
Формат/Информация : Audio Coding 3
Коммерческое название : Dolby Digital
Идентификатор кодека : A_AC3
Продолжительность : 1 ч. 50 м.
Вид битрейта : Постоянный
Битрейт : 384 Кбит/сек
Каналы : 6 каналов
Channel layout : L R C LFE Ls Rs
Частота : 48,0 КГц
Частота кадров : 31,250 кадров/сек (1536 SPF)
Метод сжатия : С потерями
Размер потока : 304 Мбайт (13%)
Заголовок : Russian
Язык : Russian
Service kind : Complete Main
Default : Да
Forced : Нет

pb.wtf



Скачать Великий через торрент https://d.radikal.ru/d36/2106/1a/3fee7274a1c2.jpg Скачать фильм Великий через торрент бесплантно в хорошем качестве Описание: 1970-е. Военный фотограф Юджин Смит по заданию журнала Life возвращается в Японию, где в небольшом прибрежном городке Минамата ... 10 10 5
Торрент: Зарегистрирован [2021-06-05 03:39] · скачан: 140 раз
Статус: √ проверено
Размер: 2.27 GB
Как cкачать? Как скачать Великий через торрент | UTorrent

% Раздел Тема Автор DL S | L
Фильмы 2019-2020 [DVDrip, WEB-DLRip, HDrip] (DUB, MVO) [ 1.45 GB ] Великий / Minamata [2020 биография WEBRip-AVC] DUB [IVI] от MediaBit Lithuania Скачать
23 | 0
Фильмы (WEB-DL 720p, 1080p) [ 4.24 GB ] Великий / Minamata [2020 биография WEBRip 1080p] DUB [IVI] bober100 Скачать
29 | 0
TBS (пошаговые стратегии) [ 1.1 GB ] Mount And Blade.Огнём и мечом - Великие битвы.v 1.134 [Repack RU] roman3310i Скачать
2 | 0
RPG [ 1.11 GB ] Mount & Blade. Огнём и мечом. Великие битвы [RePack Русск​​ий] от R.G. Pirat's R.G. Repacker's Скачать
1 | 0

28-11-2019 20:33  

Отключить всю рекламу на сайте

    Дорогой пользователь! Огромная просьба, поблагодарите релизера, оцените раздачу и оставьте свои комментарий, если Вы скачали Великий через торрент бесплатно! Внесите свою лепту в развитие PiratBit!
    Комментировать посты могут только пользователи прошедшие не сложную регистрацию
    Показать сообщения:    

    Великий через торрент
    Скачать бесплатно Великий
    Великий скачать торрент
    Великий смотреть онлайн
    Cкачать фильм Великий бесплатно
    Великий скачать торрент в хорошем качестве
    Великий смотреть онлайн бесплатно в хорошем качестве


    Вы не можете начинать темы
    Вы не можете отвечать на сообщения
    Вы не можете редактировать свои сообщения
    Вы не можете удалять свои сообщения
    Вы не можете голосовать в опросах
    Вы не можете прикреплять файлы к сообщениям
    Вы можете скачивать файлы