Присоединяйтесь к нам в Telegram!, здесь всегда актуальный адрес сайта, оперативная поддержка и многое другое!!

>

5.9

iTunes

7.4

iTunes

9.4

1 сезон

1

7.4

2 сезон

7.2

iTunes

7.3

1 сезон

13

6.1

iTunes

8.3

Пиратка

30

ULTIMATE

pack

9.9

Лицензия

ВАЖНО

ИГРА 18+

pack

7.3

RePack

MK11

7.7

RePack

jed

7.8

RePack

fifa19

8.5

RePack

RDR2

RePack

NEED FOR SPEED™ PAYBACK

5 сезон

9 сезон

Бесстыжие 9 сезон

Все сериалы

все сериалы на PB.wtf

RePack

FAR CRY 5

Anonymous, доброй ночи, мы катастрофически не успеваем собрать деньги на оплату серверов, помогите нам пожалуйста 5,10,15р., для нас важна любая помощь . В качестве благодарности мы отключим Вам всю рекламу на сайте (укажите свой ник в строку Ваше имя)!

×
  
Magnet ссылка

Гнев человеческий / Wrath of Man (Гай Ричи)(AMAZON) [2021 г., боевик, триллер, WEB-DLRip, Дубляж iTunes] pb.wtf

Гнев человеческий через торрент pb.wtf

Размер: 720 MB | Добавлен: 6 мес. назад | Торрент скачан:27 раз
Смотреть онлайн Гнев человеческий | Скачать    Ребята, помогите собрать деньги на оплату серверов!!!

05-06-2021 18:37 Гнев человеческий Скачать торрент  

Гнев человеческий / Wrath of Man
Год выпуска: 2021
Страна: Великобритания, США / Metro-Goldwyn-Mayer (MGM), Miramax, CAA Media Finance
Жанр: боевик, триллер
Продолжительность: 01:58:56
Перевод: Дубляж (iTunes)
Субтитры: русские форсированные – вшитые

Режиссер: Гай Ричи

rating

В ролях: Джейсон Стэйтем, Холт Маккэллани, Джеффри Донован, Джош Хартнетт, Лас Алонсо, Алекс Фернс, Рауль Кастильо, Деобиа Опарей, Скотт Иствуд, Нив Алгар

Описание: Грузовики лос-анджелесской инкассаторской компании Fortico Security часто подвергаются нападениям, и во время очередного ограбления погибают оба охранника. Через некоторое время в компанию устраивается крепкий немногословный британец Патрик Хилл. Он получает от босса прозвище Эйч и, впритык к необходимому минимуму пройдя тесты по фитнесу, стрельбе и вождению, отправляется на первое задание. Вскоре и его грузовик пытаются ограбить вооруженные налётчики, но Эйч в одиночку расправляется с целой бандой и становится героем. Кажется, слава и уважение коллег его совершенно не интересуют, ведь он преследует свои цели.

Качество: WEB-DLRip
Формат: AVI
Видео кодек: DivX
Аудио кодек: MP3
Видео: 640x272 (2.35:1), 23.976 fps, DivX Codec 4.x ~709 kbps avg, 0.17 bit/pixel
Аудио: 48 kHz, MPEG Layer 3, 2 ch, ~128.00 kbps avg




Общее
Полное имя : G:\ФИЛЬМЫ\Гнев человеческий.2021.D.AMAZON.WEB-DLRip.avi
Формат : AVI
Формат/Информация : Audio Video Interleave
Размер файла : 720 Мбайт
Продолжительность : 1 ч. 58 м.
Общий поток : 847 Кбит/сек
Программа кодирования : VirtualDubMod 1.5.10.3 | www.virtualdub-fr.org || (build 2550/release)
Библиотека кодирования : VirtualDubMod build 2550/release

Видео
Идентификатор : 0
Формат : MPEG-4 Visual
Профиль формата : Advanced Simple@L5
Настройки формата : BVOP2
Параметр BVOP формата : 2
Параметр QPel формата : Нет
Параметр GMC формата : Без точки перехода
Параметр матрицы формата : Default (MPEG)
Идентификатор кодека : DIVX
Идентификатор кодека/Информация : Project Mayo
Идентификатор кодека/Подсказка : DivX 4
Продолжительность : 1 ч. 58 м.
Битрейт : 710 Кбит/сек
Ширина : 640 пикселей
Высота : 272 пикселя
Соотношение сторон : 2,35:1
Частота кадров : 23,976 (24000/1001) кадра/сек
Цветовое пространство : YUV
Субдискретизация насыщенности : 4:2:0
Битовая глубина : 8 бит
Тип развёртки : Прогрессивная
Метод сжатия : С потерями
Бит/(Пиксели*Кадры) : 0.170
Размер потока : 604 Мбайт (84%)
Библиотека кодирования : XviD 1.2.1 (UTC 2008-12-04)

Аудио
Идентификатор : 1
Формат : MPEG Audio
Версия формата : Version 1
Профиль формата : Layer 3
Настройки формата : Joint stereo / MS Stereo
Идентификатор кодека : 55
Идентификатор кодека/Подсказка : MP3
Продолжительность : 1 ч. 58 м.
Вид битрейта : Постоянный
Битрейт : 128 Кбит/сек
Каналы : 2 канала
Частота : 48,0 КГц
Частота кадров : 41,667 кадра/сек (1152 SPF)
Метод сжатия : С потерями
Размер потока : 109 Мбайт (15%)
Выравнивание : Соединение по промежуткам
Продолжительность промежутка : 42 мс. (1,00 видеокадр)
Время предзагрузки промежутка : 504 мс.
Библиотека кодирования : LAME3.99r
Настройки программы : -m j -V 4 -q 2 -lowpass 17 -b 128

Report created by : MediaInfoLib - v21.03
Report created on : UTC 2021-06-05 18:26:23

pb.wtf



Скачать Гнев человеческий через торрент https://pic1.kartinco.top/new/img/2021-06/05/jrezxeuckw87twos3j2rcbhdm.jpg Скачать, смотреть онлайн Гнев человеческий бесплантно в хорошем качестве Описание: Грузовики лос-анджелесской инкассаторской компании Fortico Security часто подвергаются нападениям, и во время очередного ... 10 10 4
Торрент: Зарегистрирован [2021-06-05 18:37] · скачан: 27 раз
Статус: √ проверено
Размер: 720 MB
Как cкачать? Как скачать Гнев человеческий через торрент | UTorrent

% Раздел Тема Автор DL S | L
Фильмы [HD 720p, 1080p] (Хороший звук DUB, MVO) [ 6 GB ] Гнев человеческий / Wrath of Man / Cash Truck [2021 BDRip 720p] +AVO [Пучков a.k.a Goblin] bober100 Скачать
7 | 0
Ultra HD (UHD: 2K, 4K, 8K) — видео сверхвысокой чёткости [ 67.3 GB ] Гнев человеческий / Wrath of man / Cash Truck [2021 UHD BDRemux 2160p] DUB [СинеЛаб СаундМикс] bober100 Скачать
3 | 0
Фильмы [HD 720p, 1080p] (Хороший звук DUB, MVO) [ 17.16 GB ] Гнев человеческий / Wrath of Man / Cash Truck [2021 BDRip 1080p] +AVO [Пучков a.k.a Goblin] bober100 Скачать
5 | 0
Фильмы с авторской озвучкой [ 1.46 GB ] Гнев человеческий / Wrath of Man [2021 BDRip] AVO [Д.Пучков] Twi7ter Скачать
21 | 0
Фильмы с авторской озвучкой [ 2.18 GB ] Гнев человеческий / Wrath of Man [2021 BDRip] AVO [Д.Пучков] Twi7ter Скачать
24 | 0
Фильмы (WEB-DL 720p, 1080p) [ 5.73 GB ] Гнев человеческий / Wrath of Man [2021 WEB-DL 1080p] [DVO] killermax2013 Скачать
2 | 0

28-11-2019 20:33  

Отключить всю рекламу на сайте

    Дорогой пользователь! Огромная просьба, поблагодарите релизера, оцените раздачу и оставьте свои комментарий, если Вы скачали Гнев человеческий через торрент бесплатно!
    Комментировать посты могут только пользователи прошедшие не сложную регистрацию
    Показать сообщения:    

    Гнев человеческий через торрент
    Скачать бесплатно Гнев человеческий
    Гнев человеческий скачать торрент
    Гнев человеческий смотреть онлайн
    Cкачать фильм Гнев человеческий бесплатно
    Гнев человеческий скачать торрент в хорошем качестве
    Гнев человеческий смотреть онлайн бесплатно в хорошем качестве


    Вы не можете начинать темы
    Вы не можете отвечать на сообщения
    Вы не можете редактировать свои сообщения
    Вы не можете удалять свои сообщения
    Вы не можете голосовать в опросах
    Вы не можете прикреплять файлы к сообщениям
    Вы можете скачивать файлы