1 сезон

3 сезон

iTunes

1

iTunes

DUB Netflix

iTunes

13

1 сезон

RePack

30

Deluxe

pack

Легкие деньги

ВАЖНО

ИГРА 18+

pack

RePack

MK11

RePack

jed

RePack

fifa19

RePack

RDR2

RePack

NEED FOR SPEED™ PAYBACK

4 сезон

9 сезон

Бесстыжие 9 сезон

Все сериалы

все сериалы на PB.wtf

RePack

FAR CRY 5

Anonymous, доброе утро, мы не успеваем до 1 числа собрать деньги на оплату серверов, помогите нам пожалуйста в это трудное время. В качестве благодарности мы отключим Вам всю рекламу на сайте (укажите свой ник в строку Ваше имя)!

×
  
Magnet ссылка

Бессмертная битва. Код / Wu Xia 2 the Code / Immortal Combat the Cod (Джонни Ву) [2019, Фантастика, боевик, WEB-DL 1080p] MVO (rus, ukr) [iTunes] pb.wtf

Бессмертная битва. Код через торрент pb.wtf

Раздают: 5 [ 0 KB/s ]
Размер: 3.05 GB | Добавлен: 8 д. назад | Торрент скачан:99 раз
Скачать  

06-06-2021 16:09 Бессмертная битва. Код Скачать торрент  

Бессмертная битва. Код
Wu Xia 2 the Code | Immortal Combat the Cod

Год выпуска: 2019
Страна: США
Выпущено: США / Media Design Imaging
Жанр: Фантастика, боевик
Продолжительность: 01:19:35
Перевод:
Профессиональное (многоголосое) | RU | iTunes
Профессиональное (многоголосое) | UKR | iTunes
Субтитры: отсутствуют

Режиссер: Джонни Ву

rating

В ролях: Бен Згорецки, Кристл Пэйнтер Коллинз, Кейт Коллинз II, Мэтт Кейн, Джерри Сур, Бен Гартон, Й. Чан, Лиланд Леже, Лиза Й. Вонг, Уэйн Вонг

Описание: Когда код, который может спасти мир, тайно вводится члену клана "5 Элементов", судьба человечества и мира теперь зависит от его борьбы за выживание.

Качество: WEB-DL 1080p
Формат: MKV

Видео: MPEG-4 AVC, 4523 Kb/s, 1920x816, 24.000 fps
Аудио #1 Russian: 48 kHz, AC3 Dolby Digital, 2/0 (L, R) ch, ~192 Kbps | MVO | iTunes
Аудио #2 Russian: 48 kHz, Advanced Audio Codec, 2/0 (L, R) ch, ~126 Kbps | MVO | iTunes
Аудио #3 Ukrainian: 48 kHz, AC3 Dolby Digital, 2/0 (L, R) ch, ~192 Kbps | MVO | iTunes
Аудио #4 Ukrainian: 48 kHz, Advanced Audio Codec, 2/0 (L, R) ch, ~126 Kbps | MVO | iTunes
Аудио #5 English: 48 kHz, AC3 Dolby Digital, 2/0 (L, R) ch, ~192 Kbps | Original
Аудио #6 English: 48 kHz, Advanced Audio Codec, 2/0 (L, R) ch, ~126 Kbps | Original
скриншот  скриншот  скриншот  скриншот  

Complete name: Bessmertnaya.bitva.Kod.2019.WEB-DL.1080p.ELEKTRI4KA.UNIONGANG.mkv
Format: Matroska
Format version: Version 4
File size: 3.05 GiB
Duration: 1 h 19 min
Overall bit rate: 5 482 kb/s
Movie name: Bessmertnaya.bitva.Kod.2019.WEB-DL.1080p.ELEKTRI4KA.UNIONGANG.
Encoded date: UTC 2021-06-06 13:16:56
Writing application: mkvmerge v8.3.0 ('Over the Horizon') 64bit
Writing library: libebml v1.3.1 + libmatroska v1.4.2

Video
ID: 1
Format: AVC
Format/Info: Advanced Video Codec
Format profile: High@L4
Format settings: CABAC / 5 Ref Frames
Format settings, CABAC: Yes
Format settings, Reference frames: 5 frames
Codec ID: V_MPEG4/ISO/AVC
Duration: 1 h 19 min
Bit rate: 4 523 kb/s
Width: 1 920 pixels
Height: 816 pixels
Display aspect ratio: 2.35:1
Frame rate mode: Constant
Frame rate: 24.000 FPS
Color space: YUV
Chroma subsampling: 4:2:0
Bit depth: 8 bits
Scan type: Progressive
Bits/(Pixel*Frame): 0.120
Stream size: 2.51 GiB (82%)
Language: English
Default: Yes
Forced: No
Color range: Limited
Color primaries: BT.709
Transfer characteristics: BT.709
Matrix coefficients: BT.709

Audio #1
ID: 2
Format: AC-3
Format/Info: Audio Coding 3
Commercial name: Dolby Digital
Codec ID: A_AC3
Duration: 1 h 19 min
Bit rate mode: Constant
Bit rate: 192 kb/s
Channel(s): 2 channels
Channel layout: L R
Sampling rate: 48.0 kHz
Frame rate: 31.250 FPS (1536 SPF)
Compression mode: Lossy
Stream size: 109 MiB (4%)
Title: MVO AC3 (iTunes)
Language: Russian
Service kind: Complete Main
Default: Yes
Forced: Yes

Audio #2
ID: 3
Format: AAC LC
Format/Info: Advanced Audio Codec Low Complexity
Codec ID: A_AAC-2
Duration: 1 h 19 min
Bit rate: 126 kb/s
Channel(s): 2 channels
Channel layout: L R
Sampling rate: 48.0 kHz
Frame rate: 46.875 FPS (1024 SPF)
Compression mode: Lossy
Stream size: 72.0 MiB (2%)
Title: MVO AAC (iTunes)
Language: Russian
Default: No
Forced: No

Audio #3
ID: 4
Format: AC-3
Format/Info: Audio Coding 3
Commercial name: Dolby Digital
Codec ID: A_AC3
Duration: 1 h 19 min
Bit rate mode: Constant
Bit rate: 192 kb/s
Channel(s): 2 channels
Channel layout: L R
Sampling rate: 48.0 kHz
Frame rate: 31.250 FPS (1536 SPF)
Compression mode: Lossy
Stream size: 109 MiB (4%)
Title: MVO AC3 (iTunes)
Language: Ukrainian
Service kind: Complete Main
Default: No
Forced: No

Audio #4
ID: 5
Format: AAC LC
Format/Info: Advanced Audio Codec Low Complexity
Codec ID: A_AAC-2
Duration: 1 h 19 min
Bit rate: 126 kb/s
Channel(s): 2 channels
Channel layout: L R
Sampling rate: 48.0 kHz
Frame rate: 46.875 FPS (1024 SPF)
Compression mode: Lossy
Stream size: 72.0 MiB (2%)
Title: MVO AAC (iTunes)
Language: Ukrainian
Default: No
Forced: No

Audio #5
ID: 6
Format: AC-3
Format/Info: Audio Coding 3
Commercial name: Dolby Digital
Codec ID: A_AC3
Duration: 1 h 19 min
Bit rate mode: Constant
Bit rate: 192 kb/s
Channel(s): 2 channels
Channel layout: L R
Sampling rate: 48.0 kHz
Frame rate: 31.250 FPS (1536 SPF)
Compression mode: Lossy
Stream size: 109 MiB (4%)
Title: ORIGINAL AC3 (iTunes)
Language: English
Service kind: Complete Main
Default: No
Forced: No

Audio #6
ID: 7
Format: AAC LC
Format/Info: Advanced Audio Codec Low Complexity
Codec ID: A_AAC-2
Duration: 1 h 19 min
Bit rate: 126 kb/s
Channel(s): 2 channels
Channel layout: L R
Sampling rate: 48.0 kHz
Frame rate: 46.875 FPS (1024 SPF)
Compression mode: Lossy
Stream size: 71.7 MiB (2%)
Title: ORIGINAL AAC (iTunes)
Language: English
Default: No
Forced: No

Menu
00:00:00.000: en:Глава 1
00:07:28.875: en:Глава 2
00:16:04.083: en:Глава 3
00:23:09.458: en:Глава 4
00:32:21.666: en:Глава 5
00:40:14.166: en:Глава 6
00:46:41.249: en:Глава 7
00:53:54.874: en:Глава 8
00:59:50.040: en:Глава 9
01:05:51.456: en:Глава 10
01:11:44.081: en:Глава 11

pb.wtf



Скачать Бессмертная битва. Код через торрент https://i4.imageban.ru/out/2021/06/06/569383df45e6645e008a6635f17a17fc.png Скачать фильм Бессмертная битва. Код через торрент бесплантно в хорошем качестве Описание: Когда код, который может спасти мир, тайно вводится члену клана "5 Элементов", судьба человечества и мира теперь зависит от его ... 9.9 10 7
Торрент: Зарегистрирован [2021-06-06 16:09] · скачан: 99 раз
Статус: √ проверено
Размер: 3.05 GB
Как cкачать? Как скачать Бессмертная битва. Код через торрент | UTorrent

% Раздел Тема Автор DL S | L
Фильмы 2019-2020 [DVDrip, WEB-DLRip, HDrip] (DUB, MVO) [ 1.37 GB ] Бессмертная битва. Код / Wu Xia 2 the Code / Immortal Combat the Cod [2019 WEB-DLRip] MVO bober100 Скачать
10 | 0
T Фильмы 2019-2020 [DVDrip, WEB-DLRip, HDrip] (DUB, MVO) [ 1.44 GB ] Бессмертная битва. Код / Immortal Combat the Cod / Wu Xia 2 the Code [2019 WEB-DLRip-AVC] [MVO] [Синема УС] от MediaBit Lithuania Скачать
2 | 0

28-11-2019 20:33  

Отключить всю рекламу на сайте


    Дорогой пользователь! Огромная просьба, поблагодарите релизера, оцените раздачу и оставьте свои комментарий, если Вы скачали Бессмертная битва. Код через торрент бесплатно! Внесите свою лепту в развитие PiratBit!
    Комментировать посты могут только пользователи прошедшие не сложную регистрацию
    Показать сообщения:    

    Бессмертная битва. Код через торрент
    Скачать бесплатно Бессмертная битва. Код
    Бессмертная битва. Код скачать торрент
    Бессмертная битва. Код смотреть онлайн
    Cкачать фильм Бессмертная битва. Код бесплатно
    Бессмертная битва. Код скачать торрент в хорошем качестве
    Бессмертная битва. Код смотреть онлайн бесплатно в хорошем качестве


    Вы не можете начинать темы
    Вы не можете отвечать на сообщения
    Вы не можете редактировать свои сообщения
    Вы не можете удалять свои сообщения
    Вы не можете голосовать в опросах
    Вы не можете прикреплять файлы к сообщениям
    Вы можете скачивать файлы