Anonymous, добрый день, присоединяйтесь к нам в Telegram!, здесь всегда актуальный адрес сайта, оперативная поддержка и многое другое!

>

5.6

iTunes

7.4

iTunes

5.7

MVO

1

7.7

1 сезон

6.8

iTunes

7.3

1 сезон

13

6.7

1 сезон

8.3

RePack

30

ULTIMATE

pack

9.9

Лицензия

ВАЖНО

ИГРА 18+

pack

7.3

RePack

MK11

7.7

RePack

jed

7.8

RePack

fifa19

8.5

RePack

RDR2

RePack

NEED FOR SPEED™ PAYBACK

4 сезон

9 сезон

Бесстыжие 9 сезон

Все сериалы

все сериалы на PB.wtf

RePack

FAR CRY 5

Anonymous, добрый день, мы катастрофически не успеваем собрать деньги на оплату серверов, помогите нам пожалуйста 5,10,15р., для нас важна любая помощь . В качестве благодарности мы отключим Вам всю рекламу на сайте (укажите свой ник в строку Ваше имя)!

×
  
Magnet ссылка

Триада / Сезон: 2 / Серии: 1-16 из 16 (Дмитрий Дьяченко) [2021, Комедия, SATRip] pb.wtf

Триада через торрент pb.wtf

Раздают: 2 [ 0 KB/s ]
Размер: 5.13 GB | Добавлен: 3 мес. 21 д. назад | Торрент скачан:86 раз
Смотреть онлайн Триада | Скачать    Ребята, помогите собрать деньги на оплату серверов!!!

07-06-2021 16:53 Триада Скачать торрент  

Триада 2
Год выпуска: 2021
Страна: Россия
Выпущено: Comedy Club Production по заказу телеканала ТНТ
Жанр: Комедия
Продолжительность: ~ 00:25:00 (Серия)
Перевод: Не требуется
Субтитры: отсутствуют

Режиссер: Радда Новикова

rating

В ролях: Борис Дергачев, Дарья Мороз, Любовь Аксёнова, Анастасия Калашникова, Инга Оболдина, Кирилл Полухин, Александр Пташенчук, Ника Вайпер, Тимофей Трибунцев, Елена Шевченко, Виталия Корниенко, Лаура Пицхелаури

Описание: Простой российский мужик по имени Толик давно мечтал о детях. Вместе с женой Ритой он не вылезал из клиники ЭКО, вот только Рита не знала, что у Толика есть любовница Наташа. Чтобы раз и навсегда сделать выбор между Ритой и Наташей, Толик переспал со случайной танцовщицей Миланой в клубе, чтобы понять, перед кем ему будет стыдно. В итоге от Толика забеременели и Рита, и Наташа, и Милана. Толя хочет стать любящим отцом для всех своих детей, поэтому он лавирует между женщинами и обстоятельствами, постепенно впутываясь во все более странные и комичные ситуации. Когда казалось, что тяжелее Толику быть уже не может, все три его пассии решили рожать в один день в одном роддоме.

Качество: SATRip
Формат: AVI

Видео: XviD, ~ 1650 Кбит/с, 720x400
Аудио: MP3, 2 ch, 192 Кбит/с
скриншот  скриншот  скриншот  скриншот  

Общее
Полное имя : C:\Triada.S02.XviD.SATRip.25Kuzmich\Triada.s02.e01.XviD.SATRip.25Kuzmich.avi
Формат : AVI
Формат/Информация : Audio Video Interleave
Размер файла : 326 Мбайт
Продолжительность : 24 м. 35 с.
Общий поток : 1853 Кбит/сек
Программа кодирования : VirtualDubMod 1.5.10.3 | www.virtualdub-fr.org || (build 2550/release)
Библиотека кодирования : VirtualDubMod build 2550/release

Видео
Идентификатор : 0
Формат : MPEG-4 Visual
Профиль формата : Advanced Simple@L5
Параметр BVOP формата : 1
Параметр QPel формата : Нет
Параметр GMC формата : Без точки перехода
Параметр матрицы формата : Default (MPEG)
Идентификатор кодека : XVID
Идентификатор кодека/Подсказка : XviD
Продолжительность : 24 м. 35 с.
Битрейт : 1651 Кбит/сек
Ширина : 720 пикселей
Высота : 400 пикселей
Соотношение сторон : 16:9
Частота кадров : 25,000 кадров/сек
Цветовое пространство : YUV
Субдискретизация насыщенности : 4:2:0
Битовая глубина : 8 бит
Тип развёртки : Прогрессивная
Метод сжатия : С потерями
Бит/(Пиксели*Кадры) : 0.229
Размер потока : 290 Мбайт (89%)
Библиотека кодирования : XviD 73

Аудио
Идентификатор : 1
Формат : MPEG Audio
Версия формата : Version 1
Профиль формата : Layer 3
Режим : Joint stereo
Расширение режима : MS Stereo
Идентификатор кодека : 55
Идентификатор кодека/Подсказка : MP3
Продолжительность : 24 м. 35 с.
Вид битрейта : Постоянный
Битрейт : 192 Кбит/сек
Каналы : 2 канала
Частота : 48,0 КГц
Метод сжатия : С потерями
Размер потока : 33,8 Мбайт (10%)
Выравнивание : Соединение по промежуткам
Продолжительность промежутка : 40 мс. (1,00 видеокадр)
Время предзагрузки промежутка : 504 мс.
Библиотека кодирования : LAME3.99r
Настройки программы : -m j -V 4 -q 2 -lowpass 18.6 -b 192

Когда раздача ведётся путём добавления новых серий, при каждом добавлении создётся новый торрент. Чтобы начать докачку новой серии, пользователям необходимо сделать следующее:
(1) остановить скачивание,
(2) удалить старый торрент у себя из клиента (старые серии удалять не надо),
(3) скачать новый торрент и запустить его у себя в клиенте вместо старого, при этом указать клиенту путь в старую папку, куда и должно происходить скачивание новых серий.
Ваш клиент при этом должен произвести хеширование (проверку) старой папки (если не производит сам - помогите ему сделать это), и будет докачивать только те серии, которых у вас ещё нет. Старые серии при этом не удаляются, а продолжают раздаваться!
Eсли вы уже удалили старые серии, то предотвратить повторную закачку старых серий можно, отжав галочку в соответсвующих местах при запуске нового торрента. По возможности, желательно не удалять старые серии как можно дольше, чтобы релизёр не столько продолжал раздавать старые серии, а смог сконцентрироваться на новых.

pb.wtf



Скачать Триада через торрент https://i114.fastpic.ru/big/2021/0607/10/69f3711c0b3b1eb153963e282c70fa10.jpg Скачать, смотреть онлайн Триада бесплантно в хорошем качестве Описание: Простой российский мужик по имени Толик давно мечтал о детях. Вместе с женой Ритой он не вылезал из клиники ЭКО, вот только Рита ... 10 10 11
Торрент: Зарегистрирован [2021-06-24 14:21] · скачан: 86 раз
Статус: √ проверено
Размер: 5.13 GB
Как cкачать? Как скачать Триада через торрент | UTorrent

% Раздел Тема Автор DL S | L
TNT serials [ 4.95 GB ] Триада / Сезон: 2 / Серии: 1-16 из 16 [2021 WEBRip-AVC] bober100 Скачать
4 | 0
TNT serials [ 5.47 GB ] Триада / Сезон: 2 / Серии: 1-16 из 16 [2021 WEBRip] bober100 Скачать
1 | 0
TNT serials [ 12.75 GB ] Триада / Сезон: 2 / Серии: 1-16 из 16 [2021 WEBRip 1080p] bober100 Скачать
1 | 0
TNT serials [ 8.67 GB ] Триада / Сезон: 2 / Серии: 1-16 из 16 [2021 WEBRip 720p] bober100 Скачать
1 | 1


Последний раз редактировалось: bober100 (2021-06-24 14:21), всего редактировалось 6 раз(а)

28-11-2019 20:33  

Отключить всю рекламу на сайте

09-06-2021 06:56 Триада Скачать торрент  

Tакую кто вообще мог написать не понимаю :Когда казалось, что тяжелее Толику быть уже не может, все три его пассии решили рожать в один день в одном роддоме:...... ЭТО ПРОСТИТО ТОВАРИЦИИИИ!!!! pb.wtf



09-06-2021 06:58 Триада Скачать торрент  

Tакую кто вообще мог написать не понимаю :Когда казалось, что тяжелее Толику быть уже не может, все три его пассии решили рожать в один день в одном роддоме:...... ЭТО ПРОСТО ТОВАРИЦИИИИ!!!! pb.wtf



    Дорогой пользователь! Огромная просьба, поблагодарите релизера, оцените раздачу и оставьте свои комментарий, если Вы скачали Триада через торрент бесплатно!
    Комментировать посты могут только пользователи прошедшие не сложную регистрацию
    Показать сообщения:    

    Триада через торрент
    Скачать бесплатно Триада
    Триада скачать торрент
    Триада смотреть онлайн
    Cкачать фильм Триада бесплатно
    Триада скачать торрент в хорошем качестве
    Триада смотреть онлайн бесплатно в хорошем качестве


    Вы не можете начинать темы
    Вы не можете отвечать на сообщения
    Вы не можете редактировать свои сообщения
    Вы не можете удалять свои сообщения
    Вы не можете голосовать в опросах
    Вы не можете прикреплять файлы к сообщениям
    Вы можете скачивать файлы