1 сезон

3 сезон

iTunes

1

iTunes

DUB Netflix

iTunes

13

1 сезон

RePack

30

Deluxe

pack

Легкие деньги

ВАЖНО

ИГРА 18+

pack

RePack

MK11

RePack

jed

RePack

fifa19

RePack

RDR2

RePack

NEED FOR SPEED™ PAYBACK

4 сезон

9 сезон

Бесстыжие 9 сезон

Все сериалы

все сериалы на PB.wtf

RePack

FAR CRY 5

Anonymous, доброе утро, мы не успеваем до 1 числа собрать деньги на оплату серверов, помогите нам пожалуйста в это трудное время. В качестве благодарности мы отключим Вам всю рекламу на сайте (укажите свой ник в строку Ваше имя)!

×
  
Magnet ссылка

Край света / Edge of the World (Майкл Хауссман) [2021, Драма, приключения, WEB-DL 1080p] DVO [Pazl Voice] pb.wtf

Край света через торрент pb.wtf

Раздают: 6 [ 252 KB/s ]
Размер: 7.16 GB | Добавлен: 6 д. назад | Торрент скачан:118 раз
Скачать  

08-06-2021 17:30 Край света Скачать торрент  

Край света | Edge of the World
Год выпуска: 2021
Страна: США, Великобритания, Китай, Малайзия
Студия: Margate House Films
Жанр: Драма, приключения
Продолжительность: 01:44:18
Перевод: Любительский (двухголосый) | Pazl Voice
Субтитры: английские, + вшитые на иностранную речь.

Режиссер: Майкл Хауссман

rating

В ролях: Джонатан Рис-Майерс, Доминик Монаган, Ралф Айнесон, Ханна Нью, Джози Хо, Бронт Паларэ, Атика Хасихолан, Шахейзи Сам, Ван Ханафи Су, Питер Джон

Описание: Джеймс Брук отправляется на остров Борнео, где помогает местному султану подавить восстания племен, за что получает наместничество на территории, позже ставшей его собственным государством. Кроме этого Брук осознает свою высшую цель — покончить с пиратами и рабовладельцами в регионе.

Качество: WEB-DL 1080p
Формат: MKV

Видео: MPEG-4 AVC, 9153 Кбит/с, 1920x800
Аудио#1: AC3, 6 ch, 448 Кбит/с | | Tnx.KinoPub
Аудио#2: E-AC3, 2 ch, 224 Кбит/с |
скриншот  скриншот  скриншот  скриншот  скриншот  

Общее
Уникальный идентификатор : 129738635865944983742264005468831074762 (0x619AC09BB39A93E70B08771298A7C9CA)
Полное имя : Edge.of.the.World.2021.1080p.AMZN.WEB-DL.KinoPub.mkv
Формат : Matroska
Версия формата : Version 4
Размер файла : 7,16 Гбайт
Продолжительность : 1 ч. 44 м.
Общий поток : 9 827 Кбит/сек
Название фильма : Edge.of.the.World.2021.1080p.AMZN.WEB-DL.KinoPub
Дата кодирования : UTC 2021-06-08 13:35:37
Программа кодирования : mkvmerge v53.0.0 ('Fool's Gold') 64-bit
Библиотека кодирования : libebml v1.4.1 + libmatroska v1.6.2

Видео
Идентификатор : 1
Формат : AVC
Формат/Информация : Advanced Video Codec
Профиль формата : High@L4
Настройки формата : CABAC / 4 Ref Frames
Параметр CABAC формата : Да
Параметр RefFrames формата : 4 кадра
Идентификатор кодека : V_MPEG4/ISO/AVC
Продолжительность : 1 ч. 44 м.
Вид битрейта : Постоянный
Битрейт : 9 153 Кбит/сек
Номинальный битрейт : 10 000 Кбит/сек
Ширина : 1 920 пикселей
Высота : 800 пикселей
Соотношение сторон : 2,40:1
Режим частоты кадров : Постоянный
Частота кадров : 23,976 (24000/1001) кадра/сек
Цветовое пространство : YUV
Субдискретизация насыщенности : 4:2:0
Битовая глубина : 8 бит
Тип развёртки : Прогрессивная
Бит/(Пиксели*Кадры) : 0.249
Размер потока : 6,67 Гбайт (93%)
Default : Да
Forced : Нет
Цветовой диапазон : Limited
Основные цвета : BT.709
Характеристики трансфера : BT.709
Коэффициенты матрицы : BT.709

Аудио #1
Идентификатор : 2
Формат : AC-3
Формат/Информация : Audio Coding 3
Коммерческое название : Dolby Digital
Идентификатор кодека : A_AC3
Продолжительность : 1 ч. 44 м.
Вид битрейта : Постоянный
Битрейт : 448 Кбит/сек
Каналы : 6 каналов
Channel layout : L R C LFE Ls Rs
Частота : 48,0 КГц
Частота кадров : 31,250 кадров/сек (1536 SPF)
Метод сжатия : С потерями
Размер потока : 334 Мбайт (5%)
Заголовок : [DVO] Pazl Voice | KinoPub
Язык : Russian
Service kind : Complete Main
Default : Да
Forced : Нет

Аудио #2
Идентификатор : 3
Формат : E-AC-3
Формат/Информация : Enhanced AC-3
Коммерческое название : Dolby Digital Plus
Идентификатор кодека : A_EAC3
Продолжительность : 1 ч. 44 м.
Вид битрейта : Постоянный
Битрейт : 224 Кбит/сек
Каналы : 2 канала
Channel layout : L R
Частота : 48,0 КГц
Частота кадров : 31,250 кадров/сек (1536 SPF)
Метод сжатия : С потерями
Размер потока : 167 Мбайт (2%)
Заголовок : English
Язык : English
Service kind : Complete Main
Default : Нет
Forced : Нет

Текст #1
Идентификатор : 4
Формат : UTF-8
Идентификатор кодека : S_TEXT/UTF8
Идентификатор кодека/Информация : UTF-8 Plain Text
Продолжительность : 1 ч. 34 м.
Битрейт : 41 бит/сек
Count of elements : 1150
Размер потока : 28,8 Кбайт (0%)
Заголовок : English
Язык : English
Default : Нет
Forced : Нет

Текст #2
Идентификатор : 5
Формат : UTF-8
Идентификатор кодека : S_TEXT/UTF8
Идентификатор кодека/Информация : UTF-8 Plain Text
Продолжительность : 1 ч. 34 м.
Битрейт : 45 бит/сек
Count of elements : 1282
Размер потока : 31,8 Кбайт (0%)
Заголовок : English [SDH]
Язык : English
Default : Нет
Forced : Нет

pb.wtf



Скачать Край света через торрент https://d.radikal.ru/d15/2106/c0/4e653b8a3410.jpg Скачать фильм Край света через торрент бесплантно в хорошем качестве Описание: Джеймс Брук отправляется на остров Борнео, где помогает местному султану подавить восстания племен, за что получает ... 10 10 8
Торрент: Зарегистрирован [2021-06-08 17:30] · скачан: 118 раз
Статус: T временная
Размер: 7.16 GB
Как cкачать? Как скачать Край света через торрент | UTorrent

28-11-2019 20:33  

Отключить всю рекламу на сайте

    Дорогой пользователь! Огромная просьба, поблагодарите релизера, оцените раздачу и оставьте свои комментарий, если Вы скачали Край света через торрент бесплатно! Внесите свою лепту в развитие PiratBit!
    Комментировать посты могут только пользователи прошедшие не сложную регистрацию
    Показать сообщения:    

    Край света через торрент
    Скачать бесплатно Край света
    Край света скачать торрент
    Край света смотреть онлайн
    Cкачать фильм Край света бесплатно
    Край света скачать торрент в хорошем качестве
    Край света смотреть онлайн бесплатно в хорошем качестве


    Вы не можете начинать темы
    Вы не можете отвечать на сообщения
    Вы не можете редактировать свои сообщения
    Вы не можете удалять свои сообщения
    Вы не можете голосовать в опросах
    Вы не можете прикреплять файлы к сообщениям
    Вы можете скачивать файлы