1 сезон

3 сезон

iTunes

1

iTunes

DUB Netflix

iTunes

13

1 сезон

RePack

30

Deluxe

pack

Легкие деньги

ВАЖНО

ИГРА 18+

pack

RePack

MK11

RePack

jed

RePack

fifa19

RePack

RDR2

RePack

NEED FOR SPEED™ PAYBACK

4 сезон

9 сезон

Бесстыжие 9 сезон

Все сериалы

все сериалы на PB.wtf

RePack

FAR CRY 5

Anonymous, доброе утро, мы не успеваем до 1 числа собрать деньги на оплату серверов, помогите нам пожалуйста в это трудное время. В качестве благодарности мы отключим Вам всю рекламу на сайте (укажите свой ник в строку Ваше имя)!

×
  
Magnet ссылка

Нечестивые / The Unholy (Эван Спилиотопулос) [2021, Ужасы, WEB-DLRip - HEVC 1080p 10 bit 60 FPS, MVO] pb.wtf

Нечестивые через торрент pb.wtf

Раздают: 4 [ 0 KB/s ] Качают: 1 [ 0 KB/s ]
Размер: 2.89 GB | Добавлен: 5 д. назад | Торрент скачан:64 раза
Скачать  

09-06-2021 07:25 Нечестивые Скачать торрент  

The Unholy
«Не верь всему, что видишь»


Год выпуска: 2021
Страна: США
Жанр: ужасы

Продолжительность: 01:39:23
Перевод: Профессиональный многоголосый | HDRezka Studio
Субтитры: русские (форсированные) | HDRezka Studio

Режиссер: Эван Спилиотопулос

В ролях: Джеффри Дин Морган, Крикет Браун, Кэри Элвес, Уильям Сэдлер, Кэтрин Аселтон, Кристин Адамс, Диого Моргадо, Марина Мазепа, Гизела Чипе, Билл Торпе

Описание: На дереве, где 150 лет назад была повешена и сожжена обвинённая в колдовстве, глухонемая племянница провинциального священника видит Деву Марию. Случайным свидетелем произошедшего становится репортёр Джерри Фенн, приехавший в этот городок за очередной оккультной историей. На следующий день девушка обретает слух и возможность говорить, а вскоре излечивает больного мальчика. Молва расползается, Ватикан присылает представителя зафиксировать чудо, епископ планирует сделать из дерева святыню, а репортёр Фенн, изучая историю городка, находит много подозрительного.

Мировая премьера: 31 марта 2021


Качество: WeB-DLRip 1080p by DD2D3
Формат: MKV
Видео кодек: V_MPEGH/ISO/HEVC
Аудио кодек: AC3
Видео: V_MPEGH/ISO/HEVC; 1920x800 (2.40:1); 3703 Kbps; 59,940 fps; 0,040 bpp
Аудио: русский; AC3; 448 Kbps; CBR; 6 ch
Навигация по главам: нет



Общее
Уникальный идентификатор : 170961373181379522867199869455755332393 (0x809DF679B0E8457CA00E427484AB4B29)
Полное имя : D:\The Unholy (2021) WEB-DLRip - HEVC 1080p 10 bit 60 FPS.mkv
Формат : Matroska
Версия формата : Version 4
Размер файла : 2,89 Гбайт
Продолжительность : 1 ч. 39 м.
Общий поток : 4 158 Кбит/сек
Название фильма : Rip by from DD2D3
Дата кодирования : UTC 2021-06-09 06:55:49
Программа кодирования : mkvmerge v10.0.0 ('To Drown In You') 32bit
Библиотека кодирования : libebml v1.3.4 + libmatroska v1.4.5
Attachments : poster

Видео
Идентификатор : 1
Формат : HEVC
Формат/Информация : High Efficiency Video Coding
Профиль формата : Main 10@L4.1@Main
Идентификатор кодека : V_MPEGH/ISO/HEVC
Продолжительность : 1 ч. 39 м.
Битрейт : 3 704 Кбит/сек
Ширина : 1 920 пикселей
Высота : 800 пикселей
Соотношение сторон : 2,40:1
Режим частоты кадров : Постоянный
Частота кадров : 59,940 (60000/1001) кадров/сек
Цветовое пространство : YUV
Субдискретизация насыщенности : 4:2:0
Битовая глубина : 10 бит
Бит/(Пиксели*Кадры) : 0.040
Размер потока : 2,57 Гбайт (89%)
Библиотека кодирования : x265 2.3+33-0b7d54dbb71a87a0:[Windows][MSVC 1800][64 bit] 10bit: KG7x [x265.ru]
Настройки программы : cpuid=1173503 / frame-threads=2 / numa-pools=4 / wpp / no-pmode / no-pme / no-psnr / no-ssim / log-level=2 / input-csp=1 / input-res=1920x800 / interlace=0 / total-frames=357448 / level-idc=41 / high-tier=1 / uhd-bd=0 / ref=3 / no-allow-non-conformance / no-repeat-headers / annexb / no-aud / no-hrd / info / hash=0 / no-temporal-layers / open-gop / min-keyint=25 / keyint=250 / bframes=4 / b-adapt=2 / b-pyramid / bframe-bias=0 / rc-lookahead=20 / lookahead-slices=5 / scenecut=40 / no-intra-refresh / ctu=64 / min-cu-size=8 / no-rect / no-amp / max-tu-size=32 / tu-inter-depth=1 / tu-intra-depth=1 / limit-tu=0 / rdoq-level=0 / dynamic-rd=0.00 / no-ssim-rd / signhide / no-tskip / nr-intra=0 / nr-inter=0 / no-constrained-intra / strong-intra-smoothing / max-merge=2 / limit-refs=3 / no-limit-modes / me=1 / subme=2 / merange=57 / temporal-mvp / weightp / no-weightb / no-analyze-src-pics / deblock=0:0 / sao / no-sao-non-deblock / rd=3 / no-early-skip / rskip / no-fast-intra / no-tskip-fast / no-cu-lossless / no-b-intra / rdpenalty=0 / psy-rd=2.00 / psy-rdoq=0.00 / no-rd-refine / analysis-mode=0 / no-lossless / cbqpoffs=0 / crqpoffs=0 / rc=abr / bitrate=3700 / qcomp=0.60 / qpstep=4 / stats-write=0 / stats-read=2 / cplxblur=20.0 / qblur=0.5 / ipratio=1.40 / pbratio=1.30 / aq-mode=1 / aq-strength=1.00 / cutree / zone-count=0 / no-strict-cbr / qg-size=32 / no-rc-grain / qpmax=69 / qpmin=0 / sar=1 / overscan=0 / videoformat=5 / range=0 / colorprim=2 / transfer=2 / colormatrix=2 / chromaloc=0 / display-window=0 / max-cll=0,0 / min-luma=0 / max-luma=1023 / log2-max-poc-lsb=8 / vui-timing-info / vui-hrd-info / slices=1 / opt-qp-pps / opt-ref-list-length-pps / no-multi-pass-opt-rps / scenecut-bias=0.05 / no-opt-cu-delta-qp / no-aq-motion / no-hdr / no-hdr-opt / refine-level=5 / no-limit-sao
Default : Да
Forced : Нет

Аудио
Идентификатор : 2
Формат : AC-3
Формат/Информация : Audio Coding 3
Коммерческое название : Dolby Digital
Идентификатор кодека : A_AC3
Продолжительность : 1 ч. 39 м.
Вид битрейта : Постоянный
Битрейт : 448 Кбит/сек
Каналы : 6 каналов
Channel layout : L R C LFE Ls Rs
Частота : 48,0 КГц
Частота кадров : 31,250 кадров/сек (1536 SPF)
Метод сжатия : С потерями
Размер потока : 318 Мбайт (11%)
Заголовок : MVO [HDRezka Studio]
Язык : Russian
Service kind : Complete Main
Default : Да
Forced : Да

Текст
Идентификатор : 3
Формат : UTF-8
Идентификатор кодека : S_TEXT/UTF8
Идентификатор кодека/Информация : UTF-8 Plain Text
Продолжительность : 1 ч. 31 м.
Битрейт : 3 бит/сек
Count of elements : 49
Размер потока : 2,37 Кбайт (0%)
Заголовок : Forced [HDRezka Studio]
Язык : Russian
Default : Да
Forced : Да


скриншот   скриншот   скриншот   скриншот  


pb.wtf



Скачать Нечестивые через торрент https://funkyimg.com/i/3cezz.jpg Скачать фильм Нечестивые через торрент бесплантно в хорошем качестве Описание: На дереве, где 150 лет назад была повешена и сожжена обвинённая в колдовстве, глухонемая племянница провинциального священника ... 10 10 2
Торрент: Зарегистрирован [2021-06-09 07:25] · скачан: 64 раз
Статус: не проверено
Размер: 2.89 GB
Как cкачать? Как скачать Нечестивые через торрент | UTorrent

% Раздел Тема Автор DL S | L
* Фильмы 2021 [DVDrip, WEB-DLRip, HDrip] (DUB, MVO) [ 2.35 GB ] Нечестивые / The Unholy [2021 HDRip-AVC] MVO [HDRezka Studio] от MediaBit Lithuania Скачать
10 | 1
Фильмы (WEB-DL 720p, 1080p) [ 4.74 GB ] Нечестивые / The Unholy [2021 WEB-DL 1080p] MVO [HDRezka Studio] bober100 Скачать
19 | 1
Фильмы 2021 [DVDrip, WEB-DLRip, HDrip] (DUB, MVO) [ 1.45 GB ] Нечестивые / The Unholy [2021 WEB-DLRip] MVO [HDrezka Studio] bober100 Скачать
13 | 0

28-11-2019 20:33  

Отключить всю рекламу на сайте

    Дорогой пользователь! Огромная просьба, поблагодарите релизера, оцените раздачу и оставьте свои комментарий, если Вы скачали Нечестивые через торрент бесплатно! Внесите свою лепту в развитие PiratBit!
    Комментировать посты могут только пользователи прошедшие не сложную регистрацию
    Показать сообщения:    

    Нечестивые через торрент
    Скачать бесплатно Нечестивые
    Нечестивые скачать торрент
    Нечестивые смотреть онлайн
    Cкачать фильм Нечестивые бесплатно
    Нечестивые скачать торрент в хорошем качестве
    Нечестивые смотреть онлайн бесплатно в хорошем качестве


    Вы не можете начинать темы
    Вы не можете отвечать на сообщения
    Вы не можете редактировать свои сообщения
    Вы не можете удалять свои сообщения
    Вы не можете голосовать в опросах
    Вы не можете прикреплять файлы к сообщениям
    Вы можете скачивать файлы