1 сезон

3 сезон

iTunes

1

iTunes

DUB Netflix

iTunes

13

1 сезон

RePack

30

Deluxe

pack

Легкие деньги

ВАЖНО

ИГРА 18+

pack

RePack

MK11

RePack

jed

RePack

fifa19

RePack

RDR2

RePack

NEED FOR SPEED™ PAYBACK

4 сезон

9 сезон

Бесстыжие 9 сезон

Все сериалы

все сериалы на PB.wtf

RePack

FAR CRY 5

Anonymous, доброе утро, мы не успеваем до 1 числа собрать деньги на оплату серверов, помогите нам пожалуйста в это трудное время. В качестве благодарности мы отключим Вам всю рекламу на сайте (укажите свой ник в строку Ваше имя)!

×
  
Magnet ссылка

Содержанки / Сезон: 3 /Серии: 1 из 12 (Юрий Мороз) [2021 г., Триллер, Эротика, WEBRip] pb.wtf

Содержанки через торрент pb.wtf

Раздают: 9 [ 22 KB/s ]
Размер: 600 MB | Добавлен: 5 д. назад | Торрент скачан:63 раза
Скачать  

09-06-2021 23:00 Содержанки Скачать торрент  

Содержанки
Год выпуска: 2021
Страна: Россия
Студия: Старт, Yellow, Black & White
Жанр: Триллер, Эротика
Продолжительность: ~ 00:50:00
Субтитры: Отсутствуют

Режиссер: Юрий Мороз

rating

В ролях: Дарья Мороз, Владимир Мишуков, Софья Эрнст, Сергей Бурунов, Марина Зудина, Семён Штейнберг, Александра Ребенок, Сабина Ахмедова, Александра Ревенко, Игорь Миркурбанов, Константин Лавроненко, Юрий Чурсин, Пётр Скворцов, Виктория Толстоганова, Светлана Устинова, Сергей Гилёв, Владимир Майзингер, Александр Горбатов (II), Игорь Верник, Александр Молочников, Игорь Гордин, Виктор Вержбицкий, Александр Воробьёв, Артём Кошман, Марго Овсянникова, Антон Севидов, Глеб Калюжный, Дмитрий Куличков

Описание: В финале второго сезона героиня Дарьи Мороз сделала неожиданный для многих зрителей выбор, узнав о происхождении загадочной художницы Асфари. Куда приведет Лену этот выбор и как сложатся ее отношения с Глебом? Ответы на эти вопросы зрители получат в третьей части одного из самых откровенных и провокационных сериалов о современной Москве.

Качество: WEBRip
Формат: AVI
Видео кодек: XviD
Аудио кодек: AC3
Видео: 1592 Кбит/сек, 720*400 (16:9), в 25,000 кадров/сек, MPEG-4 Visual (XviD)
Аудио: 192 Кбит/сек, 48,0 КГц, 16 бит, 2 канала, AC-3
Общее
Полное имя : G:\Soderzhanki.S03.WEB-DLRip.25Kuzmich\Soderzhanki.s03e01.WEB-DLRip.25Kuzmich.avi
Формат : AVI
Формат/Информация : Audio Video Interleave
Размер файла : 600 Мбайт
Продолжительность : 46 м. 45 с.
Общий поток : 1794 Кбит/сек
Программа кодирования : VirtualDubMod 1.5.10.3 | www.virtualdub-fr.org || (build 2550/release)
Библиотека кодирования : VirtualDubMod build 2550/release

Видео
Идентификатор : 0
Формат : MPEG-4 Visual
Профиль формата : Advanced Simple@L5
Настройки формата : BVOP1
Параметр BVOP формата : 1
Параметр QPel формата : Нет
Параметр GMC формата : Без точки перехода
Параметр матрицы формата : Default (MPEG)
Идентификатор кодека : XVID
Идентификатор кодека/Подсказка : XviD
Продолжительность : 46 м. 45 с.
Битрейт : 1592 Кбит/сек
Ширина : 720 пикселей
Высота : 400 пикселей
Соотношение сторон : 16:9
Частота кадров : 25,000 кадров/сек
Цветовое пространство : YUV
Субдискретизация насыщенности : 4:2:0
Битовая глубина : 8 бит
Тип развёртки : Прогрессивная
Метод сжатия : С потерями
Бит/(Пиксели*Кадры) : 0.221
Размер потока : 532 Мбайт (89%)
Библиотека кодирования : XviD 73

Аудио
Идентификатор : 1
Формат : AC-3
Формат/Информация : Audio Coding 3
Коммерческое название : Dolby Digital
Идентификатор кодека : 2000
Продолжительность : 46 м. 45 с.
Вид битрейта : Постоянный
Битрейт : 192 Кбит/сек
Каналы : 2 канала
ChannelLayout : L R
Частота : 48,0 КГц
Частота кадров : 31,250 кадров/сек (1536 SPF)
Битовая глубина : 16 бит
Метод сжатия : С потерями
Размер потока : 64,2 Мбайт (11%)
Выравнивание : Разделение по промежуткам
Продолжительность промежутка : 40 мс. (1,00 видеокадр)
Время предзагрузки промежутка : 500 мс.
ServiceKind/String : Complete Main
Внимание! Раздача ведётся путём добавления новых серий; при каждом добавлении создаётся новый торрент. Чтобы начать докачку новой серии, пользователям необходимо сделать следующее:
(1) остановить скачивание,
(2) удалить старый торрент у себя из клиента (старые серии удалять не надо),
(3) скачать новый торрент и запустить его у себя в клиенте вместо старого, при этом указать клиенту путь в старую папку куда и должно происходить скачивание новых серий.

Ваш клиент при этом должен произвести хеширование (проверку) старой папки (если не производит сам - помогите ему сделать это), и будет докачивать только те серии которых у вас ещё нет. Старые серии при этом не удаляются, а продолжают раздаваться!

Eсли вы уже удалили старые серии, то предотвратить повторную закачку старых серий можно, отжав галочку в соответствующих местах при запуске нового торрента. По возможности, желательно не удалять старые серии как можно дольше чтобы релизёр не столько продолжал раздавать старые серии, а смог сконцентрироваться на новых.


Скриншоты:
скриншот   скриншот   скриншот   скриншот   скриншот   скриншот   скриншот   
скриншот  
pb.wtf



Скачать Содержанки через торрент https://pic1.kartinco.top/new/img/2021-06/10/0oh2aj125lcz0jex27d0u2lxq.jpg Скачать фильм Содержанки через торрент бесплантно в хорошем качестве Описание: В финале второго сезона героиня Дарьи Мороз сделала неожиданный для многих зрителей выбор, узнав о происхождении загадочной ... 10 10 3
Торрент: Зарегистрирован [2021-06-09 23:00] · скачан: 63 раз
Статус: √ проверено
Размер: 600 MB
Как cкачать? Как скачать Содержанки через торрент | UTorrent

% Раздел Тема Автор DL S | L
Наши сериалы [ 2.16 GB ] Содержанки / Сезон: 3 / Серии: 1- из 12 [2021 эротика WEBRip 1080p] bober100 Скачать
27 | 0


Последний раз редактировалось: GEKADOL (2021-06-10 03:51), всего редактировалось 3 раз(а)

28-11-2019 20:33  

Отключить всю рекламу на сайте

09-06-2021 23:06 Содержанки Скачать торрент  

Расписание выхода серий
2 серия — 17 июня
3 серия — 24 июня
4 серия — 1 июля
5 серия — 8 июля
6 серия — 15 июля
7 серия — 22 июля
8 серия — 29 июля
9 серия — 5 августа
10 серия — 12 августа
11 серия — 19 августа
12 серия. ФИНАЛ — 26 августаpb.wtf



    Дорогой пользователь! Огромная просьба, поблагодарите релизера, оцените раздачу и оставьте свои комментарий, если Вы скачали Содержанки через торрент бесплатно! Внесите свою лепту в развитие PiratBit!
    Комментировать посты могут только пользователи прошедшие не сложную регистрацию
    Показать сообщения:    

    Содержанки через торрент
    Скачать бесплатно Содержанки
    Содержанки скачать торрент
    Содержанки смотреть онлайн
    Cкачать фильм Содержанки бесплатно
    Содержанки скачать торрент в хорошем качестве
    Содержанки смотреть онлайн бесплатно в хорошем качестве


    Вы не можете начинать темы
    Вы не можете отвечать на сообщения
    Вы не можете редактировать свои сообщения
    Вы не можете удалять свои сообщения
    Вы не можете голосовать в опросах
    Вы не можете прикреплять файлы к сообщениям
    Вы можете скачивать файлы