1 сезон

3 сезон

iTunes

1

iTunes

DUB Netflix

iTunes

13

1 сезон

RePack

30

Deluxe

pack

Легкие деньги

ВАЖНО

ИГРА 18+

pack

RePack

MK11

RePack

jed

RePack

fifa19

RePack

RDR2

RePack

NEED FOR SPEED™ PAYBACK

4 сезон

9 сезон

Бесстыжие 9 сезон

Все сериалы

все сериалы на PB.wtf

RePack

FAR CRY 5

Anonymous, доброе утро, мы не успеваем до 1 числа собрать деньги на оплату серверов, помогите нам пожалуйста в это трудное время. В качестве благодарности мы отключим Вам всю рекламу на сайте (укажите свой ник в строку Ваше имя)!

×
  
Magnet ссылка

Тайная жизнь насекомых / Dreles de petites betes (Арно Бурон, Антун Крингс) [2017, Мультфильм, комедия, приключения, семейный, HDRip-AVC] [DUB, MVO] [Megogo, HDRezka Studio] от MediaBit pb.wtf

Тайная жизнь насекомых через торрент pb.wtf

Раздают: 1 [ 0 KB/s ]
Размер: 2.17 GB | Добавлен: 4 д. назад | Торрент скачан:11 раз
Скачать  

10-06-2021 18:21 Тайная жизнь насекомых Скачать торрент  


Тайная жизнь насекомых / Drôles de petites bêtes
Информация о фильме:
Название: Тайная жизнь насекомых
Оригинальное название: Drôles de petites bêtes
Год выхода: 2017
Жанр: Мультфильм, комедия, приключения, семейный
Режиссер: Арно Бурон, Антун Крингс

В ролях: Виржини Эфира, Кев Адамс, Эммануэль Кюртиль, Селин Меллул, Жанфи Жансан, Венсан Ропион, Жереми Ковийо, Мари-Шарлотт Леклер, Дидье Гастин, Арно Леонар

Описание: Добро пожаловать в мир букашек: здесь у каждого – своя роль, все движется по своим правилам и законам, бурлит жизнь, полная взлетов и падений, радостей и печалей. Если заглянуть под листик или отодвинуть травинку, можно узнать все секреты таинственного мира насекомых. Надо лишь чуть-чуть напрячь воображение…



Страна: Франция, Люксембург
Студия: Bidibul Productions, France 3 (FR 3), ON Animation Studios, Onyx Films
Продолжительность: 01:28:16
Перевод: Профессиональный (полное дублирование) - Megogo
Перевод: Профессиональный (многоголосый, закадровый) - HDRezka Studio



Информация о файле:
Кодек: AVC
Формат: MKV
Качество: WEB-DLRip-AVC
Видео: MPEG-4 AVC, 1004x554, 24.000 fps, 2224 kbps
Аудио RU: AC3, 2 ch, 48 kHz, 192 kbps | Megogo
Аудио RU: AC3, 6 ch, 48 kHz, 448 kbps | HDRezka Studio
Аудио UKR: AC3, 2 ch, 48 kHz, 192 kbps
Аудио FRA: AC3, 6 ch, 48 kHz, 448 kbps
Субтитры: Русские (форсированные, полные), украинские (полные), французские (полные)
Навигация по главам: Да


x264 info: frame I:1059 Avg QP: 8.98 size:127478
x264 info: frame P:28363 Avg QP:11.66 size: 28715
x264 info: frame B:97682 Avg QP:15.93 size: 5346
General
Unique ID : 112324325129906750551580564862676786560 (0x5480E0CCCE19B4AE25C3A4C21BE85D80)
Complete name : D:uTorrentРипы wolf1245Tainaja.zizn.nasekomih.2017.DUB.MVO.HDRip-AVC.[wolf1245.MediaBit].mkv
Format : Matroska
Format version : Version 4
File size : 2.17 GiB
Duration : 1 h 28 min
Overall bit rate : 3 518 kb/s
Movie name : Tainaja.zizn.nasekomih.2017.DUB.MVO.HDRip-AVC.[wolf1245.MediaBit]
Encoded date : UTC 2021-06-10 18:04:23
Writing application : mkvmerge v57.0.0 ('Till The End') 64-bit
Writing library : libebml v1.4.2 + libmatroska v1.6.4
Cover : Yes
Attachments : cover.jpg
Video
ID : 1
Format : AVC
Format/Info : Advanced Video Codec
Format profile : High@L4.1
Format settings : CABAC / 12 Ref Frames
Format settings, CABAC : Yes
Format settings, Reference frames : 12 frames
Codec ID : V_MPEG4/ISO/AVC
Duration : 1 h 28 min
Bit rate : 2 224 kb/s
Width : 1 024 pixels
Height : 554 pixels
Display aspect ratio : 1.85:1
Frame rate mode : Constant
Frame rate : 24.000 FPS
Color space : YUV
Chroma subsampling : 4:2:0
Bit depth : 8 bits
Scan type : Progressive
Bits/(Pixel*Frame) : 0.163
Stream size : 1.37 GiB (63%)
Title : .[wolf1245.MediaBit]
Writing library : x264 core 157 r2958 57baac4
Encoding settings : cabac=1 / ref=12 / deblock=1:-2:-1 / analyse=0x3:0x133 / me=umh / subme=10 / psy=1 / psy_rd=0.97:0.05 / mixed_ref=1 / me_range=32 / chroma_me=1 / trellis=2 / 8x8dct=1 / cqm=0 / deadzone=21,11 / fast_pskip=1 / chroma_qp_offset=-3 / threads=10 / lookahead_threads=2 / sliced_threads=0 / nr=0 / decimate=1 / interlaced=0 / bluray_compat=0 / constrained_intra=0 / bframes=10 / b_pyramid=2 / b_adapt=2 / b_bias=0 / direct=3 / weightb=1 / open_gop=0 / weightp=2 / keyint=240 / keyint_min=24 / scenecut=40 / intra_refresh=0 / rc_lookahead=60 / rc=2pass / mbtree=1 / bitrate=2224 / ratetol=1.0 / qcomp=0.60 / qpmin=0 / qpmax=69 / qpstep=4 / cplxblur=20.0 / qblur=0.5 / vbv_maxrate=50000 / vbv_bufsize=62500 / nal_hrd=none / filler=0 / ip_ratio=1.40 / aq=1:0.80
Language : French
Default : Yes
Forced : No
Audio #1
ID : 2
Format : AC-3
Format/Info : Audio Coding 3
Commercial name : Dolby Digital
Codec ID : A_AC3
Duration : 1 h 28 min
Bit rate mode : Constant
Bit rate : 192 kb/s
Channel(s) : 2 channels
Channel layout : L R
Sampling rate : 48.0 kHz
Frame rate : 31.250 FPS (1536 SPF)
Bit depth : 16 bits
Compression mode : Lossy
Stream size : 121 MiB (5%)
Title : DUB | Megogo
Language : Russian
Service kind : Complete Main
Default : Yes
Forced : No
Audio #2
ID : 3
Format : AC-3
Format/Info : Audio Coding 3
Commercial name : Dolby Digital
Codec ID : A_AC3
Duration : 1 h 28 min
Bit rate mode : Constant
Bit rate : 448 kb/s
Channel(s) : 6 channels
Channel layout : L R C LFE Ls Rs
Sampling rate : 48.0 kHz
Frame rate : 31.250 FPS (1536 SPF)
Bit depth : 16 bits
Compression mode : Lossy
Stream size : 283 MiB (13%)
Title : MVO | HDRezka Studio
Language : Russian
Service kind : Complete Main
Default : No
Forced : No
Audio #3
ID : 4
Format : AC-3
Format/Info : Audio Coding 3
Commercial name : Dolby Digital
Codec ID : A_AC3
Duration : 1 h 28 min
Bit rate mode : Constant
Bit rate : 192 kb/s
Channel(s) : 2 channels
Channel layout : L R
Sampling rate : 48.0 kHz
Frame rate : 31.250 FPS (1536 SPF)
Bit depth : 16 bits
Compression mode : Lossy
Stream size : 121 MiB (5%)
Title : DUB | Megogo
Language : Ukrainian
Service kind : Complete Main
Default : No
Forced : No
Audio #4
ID : 5
Format : AC-3
Format/Info : Audio Coding 3
Commercial name : Dolby Digital
Codec ID : A_AC3
Duration : 1 h 28 min
Bit rate mode : Constant
Bit rate : 448 kb/s
Channel(s) : 6 channels
Channel layout : L R C LFE Ls Rs
Sampling rate : 48.0 kHz
Frame rate : 31.250 FPS (1536 SPF)
Bit depth : 16 bits
Compression mode : Lossy
Stream size : 283 MiB (13%)
Language : French
Service kind : Complete Main
Default : No
Forced : No
Text #1
ID : 6
Format : UTF-8
Codec ID : S_TEXT/UTF8
Codec ID/Info : UTF-8 Plain Text
Duration : 59 min 52 s
Bit rate : 3 b/s
Count of elements : 37
Stream size : 1.59 KiB (0%)
Title : Forced | HDRezka
Language : Russian
Default : Yes
Forced : Yes
Text #2
ID : 7
Format : UTF-8
Codec ID : S_TEXT/UTF8
Codec ID/Info : UTF-8 Plain Text
Duration : 1 h 17 min
Bit rate : 92 b/s
Count of elements : 968
Stream size : 52.4 KiB (0%)
Title : Full | Megogo
Language : Russian
Default : No
Forced : No
Text #3
ID : 8
Format : UTF-8
Codec ID : S_TEXT/UTF8
Codec ID/Info : UTF-8 Plain Text
Duration : 1 h 17 min
Bit rate : 90 b/s
Count of elements : 968
Stream size : 51.7 KiB (0%)
Title : Full | Megogo
Language : Ukrainian
Default : No
Forced : No
Text #4
ID : 9
Format : PGS
Muxing mode : zlib
Codec ID : S_HDMV/PGS
Codec ID/Info : Picture based subtitle format used on BDs/HD-DVDs
Duration : 1 h 27 min
Bit rate : 38.0 kb/s
Count of elements : 3328
Stream size : 23.7 MiB (1%)
Title : Full
Language : French
Default : No
Forced : No
Menu
00:00:00.000 : :Chapter 01
00:06:06.417 : :Chapter 02
00:14:49.667 : :Chapter 03
00:19:56.500 : :Chapter 04
00:27:18.875 : :Chapter 05
00:33:56.500 : :Chapter 06
00:40:39.333 : :Chapter 07
00:47:08.875 : :Chapter 08
00:53:14.083 : :Chapter 09
01:01:03.083 : :Chapter 10
01:07:27.208 : :Chapter 11
01:14:41.000 : :Chapter 12
Релиз от: &
Автор релиза:
pb.wtf



Скачать Тайная жизнь насекомых через торрент https://i114.fastpic.ru/big/2021/0609/56/bb9b6a1a51f951a11582a8ad80656256.jpg Скачать фильм Тайная жизнь насекомых через торрент бесплантно в хорошем качестве Описание: Добро пожаловать в мир букашек: здесь у каждого – своя роль, все движется по своим правилам и законам, бурлит жизнь, полная ... 10 10 1
Торрент: Зарегистрирован [2021-06-10 18:21] · скачан: 11 раз
Статус: √ проверено
Размер: 2.17 GB
Как cкачать? Как скачать Тайная жизнь насекомых через торрент | UTorrent

28-11-2019 20:33  

Отключить всю рекламу на сайте

    Дорогой пользователь! Огромная просьба, поблагодарите релизера, оцените раздачу и оставьте свои комментарий, если Вы скачали Тайная жизнь насекомых через торрент бесплатно! Внесите свою лепту в развитие PiratBit!
    Комментировать посты могут только пользователи прошедшие не сложную регистрацию
    Показать сообщения:    

    Тайная жизнь насекомых через торрент
    Скачать бесплатно Тайная жизнь насекомых
    Тайная жизнь насекомых скачать торрент
    Тайная жизнь насекомых смотреть онлайн
    Cкачать фильм Тайная жизнь насекомых бесплатно
    Тайная жизнь насекомых скачать торрент в хорошем качестве
    Тайная жизнь насекомых смотреть онлайн бесплатно в хорошем качестве


    Вы не можете начинать темы
    Вы не можете отвечать на сообщения
    Вы не можете редактировать свои сообщения
    Вы не можете удалять свои сообщения
    Вы не можете голосовать в опросах
    Вы не можете прикреплять файлы к сообщениям
    Вы можете скачивать файлы