Всегда рабочее зеркало без VPN и Proxy просто перед .vidak.icu напиши любое слово или цифру, Пример http://8lqp.vidak.icu

Лицензия

MVO

1 сезон

1

1 сезон

iTunes

1 сезон

13

1 сезон

Deluxe

pack

Рекомендуем

Repack

30

ВАЖНО

RePack

MK11

RePack

jed

RePack

fifa19

RePack

RDR2

RePack

NEED FOR SPEED™ PAYBACK

Кинопоиск HD

6 сезон

 Острые козырьки 6 сезон

Все сериалы

все сериалы на PB.wtf

RePack

FAR CRY 5
  
Magnet ссылка

Волшебный дракон / Дракон желаний / Wish Dragon (Крис Аппельханс) [2021, мультфильм, фэнтези, комедия, приключения, семейный, полнометражный, WEB-DLRip-AVC] [DUB] [Netflix] от MediaBit pb.wtf

Волшебный дракон через торрент pb.wtf

Раздают: 1 [ 0 KB/s ]
Размер: 1.44 GB | Добавлен: 1 год 2 мес. назад | Торрент скачан:197 раз
Смотреть онлайн Волшебный дракон | Скачать    Ребята, помогите собрать деньги на оплату серверов!!!

12-06-2021 06:37 Волшебный дракон Скачать торрент  


Волшебный дракон / Дракон желаний / Wish Dragon
Информация о фильме:
Название: Волшебный дракон / Дракон желаний
Оригинальное название: Wish Dragon
Год выхода: 2021
Жанр: мультфильм, фэнтези, комедия, приключения, семейный, полнометражный
Режиссер: Крис Аппельханс
В ролях: Джон Чо, Джимми Вонг, Наташа Лю Бордиццо, Констанс Ву, Уилл Юн Ли, Бобби Ли, Джимми О. Ян, Иэн Чен, Макс Чарльз, Александр Чен
Описание: Обычный парень высвобождает из чайника розового дракона, исполняющего желания. Дракон много веков просидел в заточении, и теперь ему ужасно интересно, как за это время изменился мир.



Страна: Китай, США, Гонконг
Студия: Base Animation, Base Media, Beijing СПАМ Roll Media Corporation, Monk Studio, Sony Pictures Animation, Tencent Pictures.
Продолжительность: 01:42:23
Перевод: Профессиональный (дублированный) - IYUNO SDI RU по заказу Netflix



Информация о файле:
Кодек: AVC
Формат: MKV
Качество: WEB-DLRip-AVC
Видео: MPEG-4 AVC, 1024x552, 23.976 fps, 1570kbps
Аудио RU: AC3, 6 ch, 48 kHz, 448 kbps
Субтитры: Русские, английские

x264 info: frame I:1400 Avg QP:10.83 size: 75206
x264 info: frame P:38400 Avg QP:16.02 size: 17419
x264 info: frame B:107255 Avg QP:20.36 size: 4008
General
Unique ID : 257553389889912903434045488765309782560 (0xC1C2FA84A926EBA2F6088BFD07778A20)
Complete name : D:uTorrentРипы wolf1245Dragon.2021.DUB.Netflix.WEB-DLRip-AVC.[wolf1245.MediaBit].mkv
Format : Matroska
Format version : Version 4
File size : 1.44 GiB
Duration : 1 h 42 min
Overall bit rate : 2 018 kb/s
Movie name : Dragon.2021.DUB.Netflix.WEB-DLRip-AVC.[wolf1245.MediaBit]
Encoded date : UTC 2021-06-12 06:18:49
Writing application : mkvmerge v57.0.0 ('Till The End') 64-bit
Writing library : libebml v1.4.2 libmatroska v1.6.4
Video
ID : 1
Format : AVC
Format/Info : Advanced Video Codec
Format profile : [email protected]
Format settings : CABAC / 12 Ref Frames
Format settings, CABAC : Yes
Format settings, Reference frames : 12 frames
Codec ID : V_MPEG4/ISO/AVC
Duration : 1 h 42 min
Bit rate : 1 570 kb/s
Width : 1 024 pixels
Height : 552 pixels
Display aspect ratio : 1.85:1
Frame rate mode : Constant
Frame rate : 23.976 (24000/1001) FPS
Color space : YUV
Chroma subsampling : 4:2:0
Bit depth : 8 bits
Scan type : Progressive
Bits/(Pixel*Frame) : 0.116
Stream size : 1.12 GiB (78%)
Title : .[wolf1245.MediaBit]
Writing library : x264 core 157 r2958 57baac4
Encoding settings : cabac=1 / ref=12 / deblock=1:-2:-1 / analyse=0x3:0x133 / me=umh / subme=10 / psy=1 / psy_rd=0.97:0.05 / mixed_ref=1 / me_range=32 / chroma_me=1 / trellis=2 / 8x8dct=1 / cqm=0 / deadzone=21,11 / fast_pskip=1 / chroma_qp_offset=-3 / threads=10 / lookahead_threads=2 / sliced_threads=0 / nr=0 / decimate=1 / interlaced=0 / bluray_compat=0 / constrained_intra=0 / bframes=10 / b_pyramid=2 / b_adapt=2 / b_bias=0 / direct=3 / weightb=1 / open_gop=0 / weightp=2 / keyint=240 / keyint_min=24 / scenecut=40 / intra_refresh=0 / rc_lookahead=60 / rc=2pass / mbtree=1 / bitrate=1570 / ratetol=1.0 / qcomp=0.60 / qpmin=0 / qpmax=69 / qpstep=4 / cplxblur=20.0 / qblur=0.5 / vbv_maxrate=50000 / vbv_bufsize=62500 / nal_hrd=none / filler=0 / ip_ratio=1.40 / aq=3:0.80
Language : English
Default : Yes
Forced : No
Audio
ID : 2
Format : AC-3
Format/Info : Audio Coding 3
Commercial name : Dolby Digital
Codec ID : A_AC3
Duration : 1 h 42 min
Bit rate mode : Constant
Bit rate : 448 kb/s
Channel(s) : 6 channels
Channel layout : L R C LFE Ls Rs
Sampling rate : 48.0 kHz
Frame rate : 31.250 FPS (1536 SPF)
Bit depth : 16 bits
Compression mode : Lossy
Stream size : 328 MiB (22%)
Title : DUB | IYUNO SDI RU по заказу Netflix
Language : Russian
Service kind : Complete Main
Default : Yes
Forced : No
Text #1
ID : 3
Format : UTF-8
Codec ID : S_TEXT/UTF8
Codec ID/Info : UTF-8 Plain Text
Duration : 1 h 32 min
Bit rate : 69 b/s
Count of elements : 1583
Stream size : 47.2 KiB (0%)
Title : English (SDH)
Language : English
Default : No
Forced : No
Text #2
ID : 4
Format : UTF-8
Codec ID : S_TEXT/UTF8
Codec ID/Info : UTF-8 Plain Text
Duration : 1 h 37 min
Bit rate : 81 b/s
Count of elements : 1176
Stream size : 57.9 KiB (0%)
Title : Russian
Language : Russian
Default : No
Forced : No
Релиз от: &
Автор релиза:
pb.wtf



Скачать Волшебный дракон через торрент https://i114.fastpic.ru/big/2021/0612/13/44c871380061d7ceababded60cdffa13.png Скачать, смотреть онлайн Волшебный дракон бесплантно в хорошем качестве Описание: Обычный парень высвобождает из чайника розового дракона, исполняющего желания. Дракон много веков просидел в заточении, и ... 10 10 4
Info! Золотая раздача, скачанное не засчитывается.
Торрент: Зарегистрирован [2021-06-12 06:37] · скачан: 197 раз
Статус: √ проверено
Размер: 1.44 GB
Как cкачать? Как скачать Волшебный дракон через торрент | UTorrent

28-11-2019 20:33  

Отключить вcю реклaмy на сайте

    Дорогой пользователь! Огромная просьба, поблагодарите релизера, оцените раздачу и оставьте свои комментарий, если Вы скачали Волшебный дракон через торрент бесплатно!
    Комментировать посты могут только пользователи прошедшие не сложную регистрацию
    Показать сообщения:    

    Волшебный дракон через торрент
    Скачать бесплатно Волшебный дракон
    Волшебный дракон скачать торрент
    Волшебный дракон смотреть онлайн
    Cкачать фильм Волшебный дракон бесплатно
    Волшебный дракон скачать торрент в хорошем качестве
    Волшебный дракон смотреть онлайн бесплатно в хорошем качестве


    Вы не можете начинать темы
    Вы не можете отвечать на сообщения
    Вы не можете редактировать свои сообщения
    Вы не можете удалять свои сообщения
    Вы не можете голосовать в опросах
    Вы не можете прикреплять файлы к сообщениям
    Вы можете скачивать файлы