1 сезон

3 сезон

iTunes

1

Line

MVO

iTunes

13

1 сезон

RePack

30

Deluxe

pack

Лицензия

ВАЖНО

ИГРА 18+

pack

RePack

MK11

RePack

jed

RePack

fifa19

RePack

RDR2

RePack

NEED FOR SPEED™ PAYBACK

4 сезон

9 сезон

Бесстыжие 9 сезон

Все сериалы

все сериалы на PB.wtf

RePack

FAR CRY 5

Anonymous, доброй ночи, мы катастрофически не успеваем собрать деньги на оплату серверов, помогите нам пожалуйста 5,10,15р., для нас важна любая помощь . В качестве благодарности мы отключим Вам всю рекламу на сайте (укажите свой ник в строку Ваше имя)!

×
  
Magnet ссылка

Айнбо. Сердце Амазонии / AINBO: Spirit of the Amazon (Рихард Клаус, Хосе Селада) [2021, Мультфильм, фэнтези, комедия, приключения, семейный, WEB-DL 1080p] DUB [iTunes] pb.wtf

Айнбо. Сердце Амазонии через торрент pb.wtf

Раздают: 29 [ 47 KB/s ]
Размер: 2.77 GB | Добавлен: 1 мес. 17 д. назад | Торрент скачан:603 раза
Скачать  

12-06-2021 07:17 Айнбо. Сердце Амазонии Скачать торрент  

Айнбо. Сердце Амазонии | AINBO: Spirit of the Amazon
Год выпуска: 2021
Страна: Перу, Нидерланды
Студия: Cinema Management Group, Tunche Films
Жанр: Мультфильм, фэнтези, комедия, приключения, семейный
Продолжительность: 01:20:57
Перевод: Дублированный | iTunes
Субтитры: Русские (Full)

Режиссер: Рихард Клаус, Хосе Селада

rating

В ролях: Том Хоффман, Бернардо де Паула, Джо Эрнандес, Дино Андраде, Алехандра Гольяс, Йени Альварез, Лола Раи, Сусана Баллестерос, Рене Мухика, Жерардо Прат

Описание: История о девочке Айнбо, которая родилась и выросла в глубоких джунглях Амазонки. Однажды она узнает, что ее родине грозит опасность, а их племя вовсе не единственное во всем мире. Героине придется сражаться не только против алчных чужаков, но и против древнего зла, живущего в Амазонке. С помощью духа ее матери Айнбо предстоит спасти свою землю и свой народ, пока не стало слишком поздно.

Качество: WEB-DL 1080p
Формат: MKV

Видео: MPEG-4 AVC, 1920x804, 4508 Kbit/s, 25.000 fps
Аудио: 48 kHz, AC3, 5.1, 384 Kbps | iTunes | RUS |
скриншот  скриншот  скриншот  скриншот  скриншот  

General
Unique ID : 336710149788690774736887111041606627748 (0xFD500418F356EFDD30E11F94788A31A4)
Complete name : F:VideoAINBO.Spirit.of.the.Amazon.2021.WEB-DL.1080p.seleZen.mkv
Format : Matroska
Format version : Version 4
File size : 2.77 GiB
Duration : 1 h 20 min
Overall bit rate : 4 894 kb/s
Movie name : AINBO: Spirit of the Amazon 2021 from seleZen
Encoded date : UTC 2021-06-12 04:42:49
Writing application : mkvmerge v55.0.0 ('Waiting For Space') 64-bit
Writing library : libebml v1.4.2 + libmatroska v1.6.4

Video
ID : 1
Format : AVC
Format/Info : Advanced Video Codec
Format profile : High@L4
Format settings : CABAC / 5 Ref Frames
Format settings, CABAC : Yes
Format settings, Reference : 5 frames
Codec ID : V_MPEG4/ISO/AVC
Duration : 1 h 20 min
Bit rate : 4 508 kb/s
Width : 1 920 pixels
Height : 804 pixels
Display aspect ratio : 2.40:1
Frame rate mode : Constant
Frame rate : 25.000 FPS
Color space : YUV
Chroma subsampling : 4:2:0
Bit depth : 8 bits
Scan type : Progressive
Bits/(Pixel*Frame) : 0.117
Stream size : 2.55 GiB (92%)
Language : English
Default : Yes
Forced : No
Color range : Limited
Color primaries : BT.709
Transfer characteristics : BT.709
Matrix coefficients : BT.709

Audio
ID : 2
Format : AC-3
Format/Info : Audio Coding 3
Commercial name : Dolby Digital
Codec ID : A_AC3
Duration : 1 h 20 min
Bit rate mode : Constant
Bit rate : 384 kb/s
Channel(s) : 6 channels
Channel layout : L R C LFE Ls Rs
Sampling rate : 48.0 kHz
Frame rate : 31.250 FPS (1536 SPF)
Compression mode : Lossy
Stream size : 222 MiB (8%)
Title : iTunes
Language : Russian
Service kind : Complete Main
Default : Yes
Forced : Yes

Text
ID : 3
Format : UTF-8
Codec ID : S_TEXT/UTF8
Codec ID/Info : UTF-8 Plain Text
Duration : 1 h 15 min
Bit rate : 78 b/s
Count of elements : 1100
Stream size : 43.7 KiB (0%)
Title : Full
Language : Russian
Default : No
Forced : No

Menu
00:00:00.000 : en:Глава 1
00:08:02.360 : en:Глава 2
00:16:20.880 : en:Глава 3
00:24:34.160 : en:Глава 4
00:32:40.200 : en:Глава 5
00:40:47.640 : en:Глава 6
00:49:02.720 : en:Глава 7
00:57:08.520 : en:Глава 8
01:05:21.000 : en:Глава 9
01:13:33.640 : en:Глава 10

pb.wtf



Скачать Айнбо. Сердце Амазонии через торрент https://i114.fastpic.ru/big/2021/0612/8e/696c5489a8b124874a4146c21fe5728e.jpg Скачать фильм Айнбо. Сердце Амазонии через торрент бесплантно в хорошем качестве Описание: История о девочке Айнбо, которая родилась и выросла в глубоких джунглях Амазонки. Однажды она узнает, что ее родине грозит ... 9.6 10 19
Info! Золотая раздача, скачанное не засчитывается.
Торрент: Зарегистрирован [2021-06-12 07:17] · скачан: 603 раз
Статус: √ проверено
Размер: 2.77 GB
Как cкачать? Как скачать Айнбо. Сердце Амазонии через торрент | UTorrent

% Раздел Тема Автор DL S | L
Иностранные мультфильмы [ 1.44 GB ] Айнбо. Сердце Амазонии / AINBO: Spirit of the Amazon [2021 Мультфильм WEB-DLRip-AVC] от MediaBit Lithuania Скачать
15 | 0
Иностранные мультфильмы [ 1.46 GB ] Айнбо. Сердце Амазонии / AINBO: Spirit of the Amazon [2021 Мультфильм WEB-DLRip] - Twi7ter Скачать
270 | 1
Иностранные мультфильмы [ 1.46 GB ] Айнбо. Сердце Амазонии / AINBO: Spirit of the Amazon [2021 Мультфильм WEB-DLRip] bober100 Скачать
3 | 0

28-11-2019 20:33  

Отключить всю рекламу на сайте


21-06-2021 15:52 Айнбо. Сердце Амазонии Скачать торрент  

Спасибо )pb.wtf



    Дорогой пользователь! Огромная просьба, поблагодарите релизера, оцените раздачу и оставьте свои комментарий, если Вы скачали Айнбо. Сердце Амазонии через торрент бесплатно! Внесите свою лепту в развитие PiratBit!
    Комментировать посты могут только пользователи прошедшие не сложную регистрацию
    Показать сообщения:    

    Айнбо. Сердце Амазонии через торрент
    Скачать бесплатно Айнбо. Сердце Амазонии
    Айнбо. Сердце Амазонии скачать торрент
    Айнбо. Сердце Амазонии смотреть онлайн
    Cкачать фильм Айнбо. Сердце Амазонии бесплатно
    Айнбо. Сердце Амазонии скачать торрент в хорошем качестве
    Айнбо. Сердце Амазонии смотреть онлайн бесплатно в хорошем качестве


    Вы не можете начинать темы
    Вы не можете отвечать на сообщения
    Вы не можете редактировать свои сообщения
    Вы не можете удалять свои сообщения
    Вы не можете голосовать в опросах
    Вы не можете прикреплять файлы к сообщениям
    Вы можете скачивать файлы