Достать ножи: Стеклянная луковица

MVO

Добыча

Дубляж

Уэнсдэй

1 сезон

Тор

Дубляж

13 клиническая

1 сезон

Жестокая ночь

MVO

Одни из нас

1 сезон

Deluxe

pack

Рекомендуем

30

Пиратка

ВАЖНО

ВАЖНО

Ghostwire

Пиратка

jed

RePack

nioh2

RePack

RDR2

RePack

NEED FOR SPEED™ PAYBACK

RePack

скачать торрент

Кинопоиск HD

Острые козырьки 6 сезон

6 сезон

FAR CRY 6

RePack

скачать торрент

Лицензия

скачать торрент

MVO

1

1 сезон

скачать торрент

1 сезон

скачать торрент

Лицензия

  

Война миров / War of the Worlds / Сезон: 2 / Серии: 1-8 из 8 (Жиль Кулье, Ричард Кларк) [2021, Фантастика, драма, WEB-DL 1080p] MVO [FOX]

Война миров через торрент pb.wtf

Размер: 16.09 GB | Добавлен: 1 год 3 мес. назад | Торрент скачан:132 раза
Смотреть онлайн | Скачать | Поддержите нас   

13-06-2021 03:58 Война миров Скачать торрент  

Война миров | War of the Worlds
Год выпуска: 2021
Страна: Великобритания, Франция, США
Студия: AGC Television, Canal+, De Wereldvrede
Жанр: Фантастика, драма
Продолжительность: ~ 00:50:00
Перевод: Профессиональный (многоголосый) | FOX
Субтитры: Aнглийские (Full (SDH), Forced на французскую речь)

Режиссер: Жиль Кулье, Ричард Кларк

rating

В ролях: Адель Беншериф, Гэбриел Бирн, Стефани Кайар, Леа Дрюкер, Дэйзи Эдгар-Джонс, Байо Гбадамоси, Пол Горостиди, Скотт Джеймс, Наташа Литтл, Элизабет МакГоверн

Описание: Астрономы обнаружили передачу данных из другой галактики, что является очевидным доказательством разумной внеземной жизни. Жители земли ждут дальнейшего контакта, но им не придется долго ждать.

Качество: WEB-DL 1080p
Формат: MKV

Видео: MPEG-4 AVC, ~ 5300 Кбит/с, 1920x1080
Аудио#1: Русский (AC3, 2 ch, 192 Кбит/с)
Аудио#2: английский (E-AC3, 6 ch, 256 Кбит/с)
скриншот  скриншот  скриншот  скриншот  

Общее
Уникальный идентификатор : 189283059851172438947880933373540092399 (0x8E66975EFEC437AAB41FC155A150C9EF)
Полное имя : C:\War.of.the.Worlds.S02.2021.WEB-DL.1080p.ExKinoRay\War.of.the.Worlds.S02.E01.2021.WEB-DL.1080p.ExKinoRay.mkv
Формат : Matroska
Версия формата : Version 2
Размер файла : 2,02 Гбайт
Продолжительность : 48 м. 53 с.
Режим общего битрейта : Переменный
Общий поток : 5920 Кбит/сек
Дата кодирования : UTC 2021-06-12 21:33:45
Программа кодирования : mkvmerge v5.8.0 ('No Sleep / Pillow') built on Sep 2 2012 15:37:04
Библиотека кодирования : libebml v1.2.3 + libmatroska v1.3.0

Видео
Идентификатор : 1
Формат : AVC
Формат/Информация : Advanced Video Codec
Профиль формата : [email protected]
Параметр CABAC формата : Да
Параметр RefFrames формата : 4 кадра
Идентификатор кодека : V_MPEG4/ISO/AVC
Продолжительность : 48 м. 53 с.
Вид битрейта : Переменный
Битрейт : 5355 Кбит/сек
Максимальный битрейт : 12,7 Мбит/сек
Ширина : 1920 пикселей
Высота : 1080 пикселей
Соотношение сторон : 16:9
Режим частоты кадров : Постоянный
Частота кадров : 25,000 кадров/сек
Цветовое пространство : YUV
Субдискретизация насыщенности : 4:2:0
Битовая глубина : 8 бит
Тип развёртки : Прогрессивная
Бит/(Пиксели*Кадры) : 0.103
Размер потока : 1,83 Гбайт (90%)
Язык : English
Default : Да
Forced : Нет
Цветовой диапазон : Limited
Основные цвета : BT.709
Характеристики трансфера : BT.709
Коэффициенты матрицы : BT.709

Аудио #1
Идентификатор : 2
Формат : AC-3
Формат/Информация : Audio Coding 3
Расширение режима : CM (complete main)
Параметр Endianness формата : Big
Идентификатор кодека : A_AC3
Продолжительность : 48 м. 53 с.
Вид битрейта : Постоянный
Битрейт : 192 Кбит/сек
Каналы : 2 канала
Расположение каналов : Front: L R
Частота : 48,0 КГц
Частота кадров : 31,250 кадров/сек (1536 spf)
Метод сжатия : С потерями
Размер потока : 67,1 Мбайт (3%)
Язык : Russian
Default : Да
Forced : Нет

Аудио #2
Идентификатор : 3
Формат : E-AC-3
Формат/Информация : Audio Coding 3
Параметр Endianness формата : Big
Идентификатор кодека : A_EAC3
Продолжительность : 48 м. 53 с.
Вид битрейта : Постоянный
Битрейт : 256 Кбит/сек
Каналы : 6 каналов
Расположение каналов : Front: L C R, Side: L R, LFE
Частота : 48,0 КГц
Частота кадров : 187,500 кадров/сек (256 spf)
Метод сжатия : С потерями
Размер потока : 89,5 Мбайт (4%)
Язык : English
Default : Нет
Forced : Нет

Текст #1
Идентификатор : 4
Формат : UTF-8
Идентификатор кодека : S_TEXT/UTF8
Идентификатор кодека/Информация : UTF-8 Plain Text
Заголовок : Forced
Язык : English
Default : Нет
Forced : Нет

Текст #2
Идентификатор : 5
Формат : UTF-8
Идентификатор кодека : S_TEXT/UTF8
Идентификатор кодека/Информация : UTF-8 Plain Text
Заголовок : Full
Язык : English
Default : Нет
Forced : Нет

Внимание! Раздача ведётся путём добавления новых серий; при каждом добавлении создаётся новый торрент.
Чтобы начать докачку новой серии, пользователям необходимо сделать следующее:
1. Остановить скачивание;
2. Удалить старый торрент у себя из клиента (старые серии удалять не надо);
3. Скачать новый торрент и запустить его у себя в клиенте вместо старого, при этом указать клиенту путь в старую папку куда и должно происходить скачивание новых серий. Ваш клиент при этом должен произвести хеширование (проверку) старой папки и будет докачивать только те серии, которых у вас ещё нет. Старые серии при этом не удаляются, а продолжают раздаваться! Eсли вы уже удалили старые серии, то предотвратить повторную закачку старых серий можно, отжав галочку в соответствующих местах при запуске нового торрента.




Скачать Война миров через торрент https://a.radikal.ru/a43/2106/ad/29dd501c92d8.jpg Скачать, смотреть онлайн Война миров бесплантно в хорошем качестве Описание: Астрономы обнаружили передачу данных из другой галактики, что является очевидным доказательством разумной внеземной жизни. Жители ... 10 10 12
Info! Золотая раздача, скачанное не засчитывается.
Торрент: Зарегистрирован [2021-10-12 06:23] · скачан: 132 раз
Статус: √ проверено
Размер: 16.09 GB
Как cкачать? Как скачать Война миров через торрент | UTorrent

% Раздел Тема Автор DL S | L
Зарубежные сериалы [ 13.74 GB ] Война миров / War of the Worlds / Сезон: 3 / Серии: 1-8 из 8 | TVShows | 1080p bober100 Скачать
2 | 0
Зарубежные сериалы [ 10.04 GB ] Война миров / War of the Worlds / Сезон: 1 / Серии: 1-8 из 8 | MVO | 720p bober100 Скачать
2 | 0
Зарубежные сериалы [ 4.32 GB ] Война миров / War of the Worlds / Сезон: 1 / Серии: 1-8 из 8 | MVO | DLRip bober100 Скачать
1 | 0
Зарубежные сериалы [ 11.29 GB ] Война миров / War of the Worlds / Сезон: 1 / Серии: 1-8 из 8 | MVO | HDTV 1080p bober100 Скачать
1 | 0



Последний раз редактировалось: bober100 (2021-10-12 06:23), всего редактировалось 1 раз

28-11-2019 20:33  


Отключить вcю реклaмy на сайте, в т.ч. и в плеере онлайн просмотра!

    Дорогой пользователь! Огромная просьба, поблагодарите релизера, оцените раздачу и оставьте свои комментарий, если Вы скачали Война миров через торрент бесплатно!!
    Комментировать посты могут только пользователи прошедшие не сложную регистрацию
    Показать сообщения:    


    Война миров через торрент
    Скачать бесплатно Война миров
    Война миров скачать торрент
    Война миров смотреть онлайн
    Cкачать фильм Война миров бесплатно
    Война миров скачать торрент в хорошем качестве
    Война миров смотреть онлайн бесплатно в хорошем качестве
    Вы не можете начинать темы
    Вы не можете отвечать на сообщения
    Вы не можете редактировать свои сообщения
    Вы не можете удалять свои сообщения
    Вы не можете голосовать в опросах
    Вы не можете прикреплять файлы к сообщениям
    Вы можете скачивать файлы
    Война миров / War of the Worlds / Сезон: 2 / Серии: 1-8 из 8 [2021, Фантастика, драма, WEB-DL 1080p] MVO [FOX] смотреть онлайн, скачать торрент picoco.icu