Присоединяйтесь к нам в Telegram!, здесь всегда актуальный адрес сайта, оперативная поддержка и многое другое!!

>

5.9

iTunes

7.4

iTunes

9.4

1 сезон

1

7.4

2 сезон

7.2

iTunes

7.3

1 сезон

13

6.1

iTunes

8.3

GOG

30

ULTIMATE

pack

9.9

Лицензия

ВАЖНО

ИГРА 18+

pack

7.3

RePack

MK11

7.7

RePack

jed

7.8

RePack

fifa19

8.5

RePack

RDR2

RePack

NEED FOR SPEED™ PAYBACK

5 сезон

9 сезон

Бесстыжие 9 сезон

Все сериалы

все сериалы на PB.wtf

RePack

FAR CRY 5

Anonymous, доброе утро, мы катастрофически не успеваем собрать деньги на оплату серверов, помогите нам пожалуйста 5,10,15р., для нас важна любая помощь . В качестве благодарности мы отключим Вам всю рекламу на сайте (укажите свой ник в строку Ваше имя)!

×
  
Magnet ссылка

Заклятие 3: По воле дьявола / The Conjuring: The Devil Made Me Do It (Майкл Чавес) [2021, Ужасы, детектив, HDRip-AVC] DUB, MVO [iTunes, HDRezka Studio] от MediaBit pb.wtf

Заклятие 3: По воле дьявола через торрент pb.wtf

Размер: 2.8 GB | Добавлен: 3 мес. 17 д. назад | Торрент скачан:31 раз
Смотреть онлайн Заклятие 3: По воле дьявола | Скачать    Ребята, помогите собрать деньги на оплату серверов!!!

13-06-2021 08:54 Заклятие 3: По воле дьявола Скачать торрент  


Заклятие 3: По воле дьявола / The Conjuring: The Devil Made Me Do It
Информация о фильме:
Название: Заклятие 3: По воле дьявола
Оригинальное название: The Conjuring: The Devil Made Me Do It
Год выхода: 2021
Жанр: Ужасы, детектив
Режиссер: Майкл Чавес
В ролях: Патрик Уилсон, Вера Фармига, Руаири О Коннор, Сара Кэтрин Хук, Джулиан Хиллиард, Джон Ноубл, Эжени Бондюран, Шэннон Кук-Чун, Ронни Джин Блевинс, Кит А. Болден

Описание: Леденящая кровь история ужасающего убийства, которая поразила даже опытных исследователей паранормальных явлений Эда и Лоррейн Уорренов. Одно из их самых сенсационных дел началось с борьбы за душу юноши, а привело к тому, чего они ни разу не видели за свою практику — впервые в истории США подозреваемый в убийстве в свою защиту заявил, что был одержим демоном.



Страна: США, Великобритания
Студия: New Line Cinema, Atomic Monster, The Safran Company
Продолжительность: 01:51:51
Перевод: Дублированный - iTunes , Профессиональный (многоголосый, закадровый) - HDRezka Studio



Информация о файле:
Кодек: AVC
Формат: MKV
Качество: HDRip-AVC
Видео: MPEG-4 AVC, 1024x428, 23.976 fps, 2295 kbps
Аудио RU: AC3, 6 ch, 48 kHz, 384 kbps | iTunes
Аудио RU: AC3, 6 ch, 48 kHz, 448 kbps | HDRezka Studio
Аудио EN: AC3, 6 ch, 48 kHz, 448 kbps | Original
Субтитры: Русские (Forced, Full), английские

x264 info: frame I:1348 Avg QP:10.51 size: 96430
x264 info: frame P:34430 Avg QP:13.67 size: 28016
x264 info: frame B:125175 Avg QP:16.95 size: 6638
General
Unique ID : 38688156084144363761036769025317602408 (0x1D1B115D4725ADE7AF57C080C9EF0468)
Complete name : D:uTorrentРипы wolf1245The.Conjuring-The.Devil.Made.Me.Do.It.2021.DUB.MVO.HDRip-AVC.[wolf1245.MediaBit].mkv
Format : Matroska
Format version : Version 4
File size : 2.80 GiB
Duration : 1 h 51 min
Overall bit rate : 3 577 kb/s
Movie name : The.Conjuring:The.Devil.Made.Me.Do.It.2021.DUB.MVO.HDRip-AVC.[wolf1245.MediaBit]
Encoded date : UTC 2021-08-14 20:51:50
Writing application : mkvmerge v60.0.0 ('Are We Copies?') 64-bit
Writing library : libebml v1.4.2 + libmatroska v1.6.4
Video
ID : 1
Format : AVC
Format/Info : Advanced Video Codec
Format profile : High@L4.1
Format settings : CABAC / 14 Ref Frames
Format settings, CABAC : Yes
Format settings, Reference frames : 14 frames
Codec ID : V_MPEG4/ISO/AVC
Duration : 1 h 51 min
Bit rate : 2 295 kb/s
Width : 1 024 pixels
Height : 428 pixels
Display aspect ratio : 2.40:1
Frame rate mode : Constant
Frame rate : 23.976 (24000/1001) FPS
Color space : YUV
Chroma subsampling : 4:2:0
Bit depth : 8 bits
Scan type : Progressive
Bits/(Pixel*Frame) : 0.218
Stream size : 1.79 GiB (64%)
Title : -=[wolf1245.MediaBit]=-
Writing library : x264 core 157 r2958 57baac4
Encoding settings : cabac=1 / ref=14 / deblock=1:-3:-3 / analyse=0x3:0x133 / me=umh / subme=11 / psy=1 / psy_rd=1.00:0.07 / mixed_ref=1 / me_range=48 / chroma_me=1 / trellis=2 / 8x8dct=1 / cqm=0 / deadzone=21,11 / fast_pskip=1 / chroma_qp_offset=-3 / threads=10 / lookahead_threads=2 / sliced_threads=0 / nr=0 / decimate=1 / interlaced=0 / bluray_compat=0 / constrained_intra=0 / bframes=12 / b_pyramid=2 / b_adapt=2 / b_bias=0 / direct=3 / weightb=1 / open_gop=0 / weightp=2 / keyint=240 / keyint_min=24 / scenecut=40 / intra_refresh=0 / rc_lookahead=60 / rc=2pass / mbtree=1 / bitrate=2295 / ratetol=1.0 / qcomp=0.60 / qpmin=0 / qpmax=69 / qpstep=4 / cplxblur=20.0 / qblur=0.5 / vbv_maxrate=50000 / vbv_bufsize=62500 / nal_hrd=none / filler=0 / ip_ratio=1.40 / aq=3:0.80
Language : English
Default : Yes
Forced : No
Color range : Limited
Color primaries : BT.709
Matrix coefficients : BT.709
Audio #1
ID : 2
Format : AC-3
Format/Info : Audio Coding 3
Commercial name : Dolby Digital
Codec ID : A_AC3
Duration : 1 h 51 min
Bit rate mode : Constant
Bit rate : 384 kb/s
Channel(s) : 6 channels
Channel layout : L R C LFE Ls Rs
Sampling rate : 48.0 kHz
Frame rate : 31.250 FPS (1536 SPF)
Compression mode : Lossy
Stream size : 307 MiB (11%)
Title : DUB | iTunes
Language : Russian
Service kind : Complete Main
Default : Yes
Forced : No
Audio #2
ID : 3
Format : AC-3
Format/Info : Audio Coding 3
Commercial name : Dolby Digital
Codec ID : A_AC3
Duration : 1 h 51 min
Bit rate mode : Constant
Bit rate : 448 kb/s
Channel(s) : 6 channels
Channel layout : L R C LFE Ls Rs
Sampling rate : 48.0 kHz
Frame rate : 31.250 FPS (1536 SPF)
Compression mode : Lossy
Stream size : 359 MiB (13%)
Title : MVO | HDRezka Studio
Language : Russian
Service kind : Complete Main
Default : No
Forced : No
Audio #3
ID : 4
Format : AC-3
Format/Info : Audio Coding 3
Commercial name : Dolby Digital
Codec ID : A_AC3
Duration : 1 h 51 min
Bit rate mode : Constant
Bit rate : 448 kb/s
Channel(s) : 6 channels
Channel layout : L R C LFE Ls Rs
Sampling rate : 48.0 kHz
Frame rate : 31.250 FPS (1536 SPF)
Compression mode : Lossy
Stream size : 359 MiB (13%)
Language : English
Service kind : Complete Main
Default : No
Forced : No
Text #1
ID : 5
Format : UTF-8
Codec ID : S_TEXT/UTF8
Codec ID/Info : UTF-8 Plain Text
Duration : 1 h 45 min
Bit rate : 3 b/s
Count of elements : 49
Stream size : 2.63 KiB (0%)
Title : Forced
Language : Russian
Default : Yes
Forced : No
Text #2
ID : 6
Format : UTF-8
Codec ID : S_TEXT/UTF8
Codec ID/Info : UTF-8 Plain Text
Duration : 1 h 49 min
Bit rate : 56 b/s
Count of elements : 1010
Stream size : 45.6 KiB (0%)
Title : Full
Language : Russian
Default : No
Forced : No
Text #3
ID : 7
Format : UTF-8
Codec ID : S_TEXT/UTF8
Codec ID/Info : UTF-8 Plain Text
Duration : 1 h 45 min
Bit rate : 41 b/s
Count of elements : 1030
Stream size : 32.5 KiB (0%)
Title : SRT
Language : English
Default : No
Forced : No
Menu
00:00:00.000 : :Chapter 01
00:11:09.502 : :Chapter 02
00:20:04.286 : :Chapter 03
00:30:26.074 : :Chapter 04
00:39:40.253 : :Chapter 05
00:50:33.572 : :Chapter 06
01:00:03.683 : :Chapter 07
01:11:42.089 : :Chapter 08
01:19:42.778 : :Chapter 09
01:31:43.998 : :Chapter 10
01:40:57.301 : :Chapter 11
Релиз от: &
Автор релиза:
pb.wtf



Скачать Заклятие 3: По воле дьявола через торрент https://i115.fastpic.ru/big/2021/0706/a8/9d4361188844282a47c2000c46374ba8.jpg Скачать, смотреть онлайн Заклятие 3: По воле дьявола бесплантно в хорошем качестве Описание: Леденящая кровь история ужасающего убийства, которая поразила даже опытных исследователей паранормальных явлений Эда и Лоррейн ... 9.7 10 23
Торрент: Зарегистрирован [2021-08-14 21:08] · скачан: 31 раз
Статус: √ проверено
Размер: 2.8 GB
Как cкачать? Как скачать Заклятие 3: По воле дьявола через торрент | UTorrent

28-11-2019 20:33  

Отключить всю рекламу на сайте

    Дорогой пользователь! Огромная просьба, поблагодарите релизера, оцените раздачу и оставьте свои комментарий, если Вы скачали Заклятие 3: По воле дьявола через торрент бесплатно!
    Комментировать посты могут только пользователи прошедшие не сложную регистрацию
    Показать сообщения:    

    Заклятие 3: По воле дьявола через торрент
    Скачать бесплатно Заклятие 3: По воле дьявола
    Заклятие 3: По воле дьявола скачать торрент
    Заклятие 3: По воле дьявола смотреть онлайн
    Cкачать фильм Заклятие 3: По воле дьявола бесплатно
    Заклятие 3: По воле дьявола скачать торрент в хорошем качестве
    Заклятие 3: По воле дьявола смотреть онлайн бесплатно в хорошем качестве


    Вы не можете начинать темы
    Вы не можете отвечать на сообщения
    Вы не можете редактировать свои сообщения
    Вы не можете удалять свои сообщения
    Вы не можете голосовать в опросах
    Вы не можете прикреплять файлы к сообщениям
    Вы можете скачивать файлы