Присоединяйтесь к нам в Telegram!, здесь всегда актуальный адрес сайта, оперативная поддержка и многое другое!!

>

5.9

iTunes

7.4

iTunes

9.4

1 сезон

1

7.4

2 сезон

7.2

iTunes

7.3

1 сезон

13

6.1

iTunes

8.3

GOG

30

ULTIMATE

pack

9.9

Лицензия

ВАЖНО

ИГРА 18+

pack

7.3

RePack

MK11

7.7

RePack

jed

7.8

RePack

fifa19

8.5

RePack

RDR2

RePack

NEED FOR SPEED™ PAYBACK

5 сезон

9 сезон

Бесстыжие 9 сезон

Все сериалы

все сериалы на PB.wtf

RePack

FAR CRY 5

Anonymous, доброе утро, мы катастрофически не успеваем собрать деньги на оплату серверов, помогите нам пожалуйста 5,10,15р., для нас важна любая помощь . В качестве благодарности мы отключим Вам всю рекламу на сайте (укажите свой ник в строку Ваше имя)!

×
  
Magnet ссылка

Бесконечность / Infinite (Антуан Фукуа) [2021, фантастика, боевик, WEB-DLRip-AVC] MVO, AVO [HDRezka Studio, М. Яроцкий] от MediaBit pb.wtf

Бесконечность через торрент pb.wtf

Раздают: 2 [ 0 KB/s ]
Размер: 2.38 GB | Добавлен: 5 мес. 10 д. назад | Торрент скачан:247 раз
Смотреть онлайн Бесконечность | Скачать    Ребята, помогите собрать деньги на оплату серверов!!!

13-06-2021 12:32 Бесконечность Скачать торрент  


Бесконечность / Infinite
Информация о фильме:
Название: Бесконечность
Оригинальное название: Infinite
Год выхода: 2021
Жанр: фантастика, боевик
Режиссер: Антуан Фукуа
В ролях: Марк Уолберг, Дилан О Брайен, Софи Куксон, Уоллис Дэй, Джейсон Манцукас, Чиветел Эджиофор, Руперт Френд, Лили Рич, Тоби Джонс, Лиз Карр

Описание: С самого детства Эван страдает от странных видений и реалистичных снов, знает вещи, которые никогда не запоминал, и имеет непонятно откуда взявшиеся навыки. С диагнозом «шизофрения» он влачит жалкое существование и зависит от таблеток. Пытаясь раздобыть очередную партю, Эван вздорит с дилером, устраивает заварушку и попадает в полицию. А там на него выходит загадочный мужчина, который утверждает, что знает его очень давно — ещё со Второй Пунической войны.



Страна: США
Студия: Closest to the Hole Productions, Di Bonaventura Pictures, New Republic Pictures
Продолжительность: 01:46:20
Перевод: Профессиональный (многоголосый, закадровый) - HDRezka Studio , Авторский (одноголосый закадровый) - М. Яроцкий



Информация о файле:
Кодек: AVC
Формат: MKV
Качество: WEB-DLRip-AVC
Видео: MPEG-4 AVC, 1024x428, 24.000 fps, 1862 kbps
Аудио RU: AC3, 6 ch, 48 kHz, 448 kbps | HDRezka Studio
Аудио RU: AC3, 6 ch, 48 kHz, 448 kbps | М. Яроцкий
Аудио EN: AC3, 6 ch, 48 kHz, 448 kbps
Субтитры: Русские (Forced, Full) английские

x264 info: frame I:1334 Avg QP:14.37 size: 67602
x264 info: frame P:47960 Avg QP:18.42 size: 16889
x264 info: frame B:103838 Avg QP:21.66 size: 5631
General
Unique ID : 163959206778027742959629330633617097845 (0x7B59650473A583F6021D05B25D60C475)
Complete name : D:uTorrentInfinite.2021.MVO.AVO.WEB-DLRip-AVC.[wolf1245.MediaBit].mkv
Format : Matroska
Format version : Version 4
File size : 2.38 GiB
Duration : 1 h 46 min
Overall bit rate : 3 208 kb/s
Movie name : Infinite.2021.MVO.AVO.WEB-DLRip-AVC.[wolf1245.MediaBit]
Encoded date : UTC 2021-06-19 15:46:27
Writing application : mkvmerge v58.0.0 ('Supper's Ready') 64-bit
Writing library : libebml v1.4.2 + libmatroska v1.6.4
Video
ID : 1
Format : AVC
Format/Info : Advanced Video Codec
Format profile : High@L4.1
Format settings : CABAC / 14 Ref Frames
Format settings, CABAC : Yes
Format settings, Reference frames : 14 frames
Codec ID : V_MPEG4/ISO/AVC
Duration : 1 h 46 min
Bit rate : 1 862 kb/s
Width : 1 024 pixels
Height : 428 pixels
Display aspect ratio : 2.40:1
Frame rate mode : Constant
Frame rate : 24.000 FPS
Color space : YUV
Chroma subsampling : 4:2:0
Bit depth : 8 bits
Scan type : Progressive
Bits/(Pixel*Frame) : 0.177
Stream size : 1.38 GiB (58%)
Title : .[wolf1245.MediaBit]
Writing library : x264 core 157 r2958 57baac4
Encoding settings : cabac=1 / ref=14 / deblock=1:-2:-1 / analyse=0x3:0x133 / me=umh / subme=11 / psy=1 / psy_rd=1.00:0.05 / mixed_ref=1 / me_range=48 / chroma_me=1 / trellis=2 / 8x8dct=1 / cqm=0 / deadzone=21,11 / fast_pskip=1 / chroma_qp_offset=-3 / threads=10 / lookahead_threads=2 / sliced_threads=0 / nr=0 / decimate=1 / interlaced=0 / bluray_compat=0 / constrained_intra=0 / bframes=12 / b_pyramid=2 / b_adapt=2 / b_bias=0 / direct=3 / weightb=1 / open_gop=0 / weightp=2 / keyint=240 / keyint_min=24 / scenecut=40 / intra_refresh=0 / rc_lookahead=60 / rc=2pass / mbtree=1 / bitrate=1862 / ratetol=1.0 / qcomp=0.60 / qpmin=0 / qpmax=69 / qpstep=4 / cplxblur=20.0 / qblur=0.5 / vbv_maxrate=50000 / vbv_bufsize=62500 / nal_hrd=none / filler=0 / ip_ratio=1.40 / aq=2:1.00
Language : English
Default : Yes
Forced : No
Color range : Limited
Color primaries : BT.709
Transfer characteristics : BT.709
Matrix coefficients : BT.709
Audio #1
ID : 2
Format : AC-3
Format/Info : Audio Coding 3
Commercial name : Dolby Digital
Codec ID : A_AC3
Duration : 1 h 46 min
Bit rate mode : Constant
Bit rate : 448 kb/s
Channel(s) : 6 channels
Channel layout : L R C LFE Ls Rs
Sampling rate : 48.0 kHz
Frame rate : 31.250 FPS (1536 SPF)
Compression mode : Lossy
Stream size : 341 MiB (14%)
Title : [MVO] HDRezka Studio
Language : Russian
Service kind : Complete Main
Default : Yes
Forced : No
Audio #2
ID : 3
Format : AC-3
Format/Info : Audio Coding 3
Commercial name : Dolby Digital
Codec ID : A_AC3
Duration : 1 h 46 min
Bit rate mode : Constant
Bit rate : 448 kb/s
Channel(s) : 6 channels
Channel layout : L R C LFE Ls Rs
Sampling rate : 48.0 kHz
Frame rate : 31.250 FPS (1536 SPF)
Compression mode : Lossy
Stream size : 341 MiB (14%)
Title : AVO | Яроцкий
Language : Russian
Service kind : Complete Main
Default : Yes
Forced : No
Audio #3
ID : 4
Format : AC-3
Format/Info : Audio Coding 3
Commercial name : Dolby Digital
Codec ID : A_AC3
Duration : 1 h 46 min
Bit rate mode : Constant
Bit rate : 448 kb/s
Channel(s) : 6 channels
Channel layout : L R C LFE Ls Rs
Sampling rate : 48.0 kHz
Frame rate : 31.250 FPS (1536 SPF)
Bit depth : 16 bits
Compression mode : Lossy
Stream size : 341 MiB (14%)
Title : Original
Language : English
Service kind : Complete Main
Default : No
Forced : No
Text #1
ID : 5
Format : UTF-8
Codec ID : S_TEXT/UTF8
Codec ID/Info : UTF-8 Plain Text
Duration : 1 h 35 min
Bit rate : 1 b/s
Count of elements : 18
Stream size : 766 Bytes (0%)
Title : [Forced]
Language : Russian
Default : Yes
Forced : Yes
Text #2
ID : 6
Format : UTF-8
Codec ID : S_TEXT/UTF8
Codec ID/Info : UTF-8 Plain Text
Duration : 1 h 36 min
Bit rate : 74 b/s
Count of elements : 947
Stream size : 53.1 KiB (0%)
Title : [Full]
Language : Russian
Default : No
Forced : No
Text #3
ID : 7
Format : UTF-8
Codec ID : S_TEXT/UTF8
Codec ID/Info : UTF-8 Plain Text
Duration : 1 h 40 min
Bit rate : 47 b/s
Count of elements : 1128
Stream size : 35.0 KiB (0%)
Title : English
Language : English
Default : No
Forced : No
Релиз от: &
Автор релиза:
pb.wtf



Скачать Бесконечность через торрент https://i5.imageban.ru/out/2021/06/13/f2092be39f4068a0ceb1944dc58b8ee5.png Скачать, смотреть онлайн Бесконечность бесплантно в хорошем качестве Описание: С самого детства Эван страдает от странных видений и реалистичных снов, знает вещи, которые никогда не запоминал, и имеет ... 10 10 8
Торрент: Зарегистрирован [2021-06-19 16:05] · скачан: 247 раз
Статус: √ проверено
Размер: 2.38 GB
Как cкачать? Как скачать Бесконечность через торрент | UTorrent

28-11-2019 20:33  

Отключить всю рекламу на сайте

    Дорогой пользователь! Огромная просьба, поблагодарите релизера, оцените раздачу и оставьте свои комментарий, если Вы скачали Бесконечность через торрент бесплатно!
    Комментировать посты могут только пользователи прошедшие не сложную регистрацию
    Показать сообщения:    

    Бесконечность через торрент
    Скачать бесплатно Бесконечность
    Бесконечность скачать торрент
    Бесконечность смотреть онлайн
    Cкачать фильм Бесконечность бесплатно
    Бесконечность скачать торрент в хорошем качестве
    Бесконечность смотреть онлайн бесплатно в хорошем качестве


    Вы не можете начинать темы
    Вы не можете отвечать на сообщения
    Вы не можете редактировать свои сообщения
    Вы не можете удалять свои сообщения
    Вы не можете голосовать в опросах
    Вы не можете прикреплять файлы к сообщениям
    Вы можете скачивать файлы