Достать ножи: Стеклянная луковица

MVO

Добыча

Дубляж

Уэнсдэй

1 сезон

Тор

Дубляж

13 клиническая

1 сезон

Жестокая ночь

MVO

Одни из нас

1 сезон

Deluxe

pack

Рекомендуем

30

Пиратка

ВАЖНО

ВАЖНО

Ghostwire

Пиратка

jed

RePack

nioh2

RePack

RDR2

RePack

NEED FOR SPEED™ PAYBACK

RePack

скачать торрент

Кинопоиск HD

Острые козырьки 6 сезон

6 сезон

FAR CRY 6

RePack

скачать торрент

Лицензия

скачать торрент

MVO

1

1 сезон

скачать торрент

1 сезон

скачать торрент

Лицензия

  

Коробка / The Box (Sasha Sibley) [2021 г., драма, WEB-DLRip, Профессиональный многоголосый закадровый "iTunes"]

Коробка через торрент pb.wtf

Раздают: 1 [ 0 KB/s ]
Размер: 703 MB | Добавлен: 1 год 7 мес. назад | Торрент скачан:14 раз
Смотреть онлайн | Скачать | Поддержите нас   

13-06-2021 18:33 Коробка Скачать торрент  

Коробка / The Box
Год выпуска: 2021
Страна: США / Samera Entertainment
Жанр: драма
Продолжительность: 01:10:12
Перевод: Профессиональный многоголосый закадровый (iTunes)

Режиссер: Sasha Sibley

rating

В ролях: Эндрю Эблесон, Chris Barry, Мишель Бернард, Джеди Боденхамер, Эндрю Колфорд, Brandon Galatz, Вивиан Джил, Аарон Гробен, Грэхэм Дженкинс, Колин Морган

Описание: Тайлер Стивенс - голливудский актер, который начинает сомневаться в своем здравом уме, когда он постоянно оказывается в ловушке кошмара в окружении зеркал. По мере того, как Тайлер все больше приближается к получению главной роли в кино, он обнаруживает, что сюжет его фильма пугающе похож на его мечты.

Качество: WEB-DLRip
Формат: AVI
Видео кодек: DivX
Аудио кодек: MP3
Видео: 640x272 (2.35:1), 24.000 fps, DivX Codec 4.x ~1259 kbps avg, 0.30 bit/pixel
Аудио: 48 kHz, MPEG Layer 3, 2 ch, ~128.00 kbps avg








Общее
Полное имя : G:\ФИЛЬМЫ\Коробка.2021.WEB-DLRip.avi
Формат : AVI
Формат/Информация : Audio Video Interleave
Размер файла : 703 Мбайт
Продолжительность : 1 ч. 10 м.
Режим общего битрейта : Переменный
Общий поток : 1 401 Кбит/сек
Программа кодирования : VirtualDubMod 1.5.10.3 | www.virtualdub-fr.org || (build 2550/release)
Библиотека кодирования : VirtualDubMod build 2550/release

Видео
Идентификатор : 0
Формат : MPEG-4 Visual
Профиль формата : Advanced [email protected]
Настройки формата : BVOP2
Параметр BVOP формата : 2
Параметр QPel формата : Нет
Параметр GMC формата : Без точки перехода
Параметр матрицы формата : Default (MPEG)
Идентификатор кодека : DIVX
Идентификатор кодека/Информация : Project Mayo
Идентификатор кодека/Подсказка : DivX 4
Продолжительность : 1 ч. 10 м.
Битрейт : 1 260 Кбит/сек
Ширина : 640 пикселей
Высота : 272 пикселя
Соотношение сторон : 2,35:1
Частота кадров : 24,000 кадра/сек
Цветовое пространство : YUV
Субдискретизация насыщенности : 4:2:0
Битовая глубина : 8 бит
Тип развёртки : Прогрессивная
Метод сжатия : С потерями
Бит/(Пиксели*Кадры) : 0.302
Размер потока : 633 Мбайт (90%)
Библиотека кодирования : XviD 1.2.1 (UTC 2008-12-04)

Аудио
Идентификатор : 1
Формат : MPEG Audio
Версия формата : Version 1
Профиль формата : Layer 3
Настройки формата : Joint stereo
Идентификатор кодека : 55
Идентификатор кодека/Подсказка : MP3
Продолжительность : 1 ч. 10 м.
Вид битрейта : Переменный
Битрейт : 128 Кбит/сек
Каналы : 2 канала
Частота : 48,0 КГц
Метод сжатия : С потерями
Размер потока : 64,3 Мбайт (9%)
Выравнивание : Соединение по промежуткам
Продолжительность промежутка : 24 мс. (0,58 видеокадр)
Время предзагрузки промежутка : 486 мс.
Библиотека кодирования : LAME3.99r
Настройки программы : -m j -V 4 -q 2 -lowpass 17 -b 128

Report created by : MediaInfoLib - v21.03
Report created on : UTC 2021-06-13 18:15:54




Скачать Коробка через торрент https://pic1.kartinco.top/new/img/2021-06/13/kh19v29gepc2esqcywi8i2unh.jpg Скачать, смотреть онлайн Коробка бесплантно в хорошем качестве Описание: Тайлер Стивенс - голливудский актер, который начинает сомневаться в своем здравом уме, когда он постоянно оказывается в ловушке ... 10 10 1
Торрент: Зарегистрирован [2021-06-13 18:33] · скачан: 14 раз
Статус: √ проверено
Размер: 703 MB
Как cкачать? Как скачать Коробка через торрент | UTorrent

28-11-2019 20:33  


Отключить вcю реклaмy на сайте, в т.ч. и в плеере онлайн просмотра!

13-06-2021 19:20 Коробка Скачать торрент  

зачем снимать такой бред?



14-06-2021 07:22 Коробка Скачать торрент  

andypandy5 писал(а):

зачем снимать такой бред?

варианта ровно 2:
1. тупо отмывание денег (бюджета)
2. желание сделать свой первый полнометражный фильм (до этого режиссер снял только короткометражку)



    Дорогой пользователь! Огромная просьба, поблагодарите релизера, оцените раздачу и оставьте свои комментарий, если Вы скачали Коробка через торрент бесплатно!!
    Комментировать посты могут только пользователи прошедшие не сложную регистрацию
    Показать сообщения:    


    Коробка через торрент
    Скачать бесплатно Коробка
    Коробка скачать торрент
    Коробка смотреть онлайн
    Cкачать фильм Коробка бесплатно
    Коробка скачать торрент в хорошем качестве
    Коробка смотреть онлайн бесплатно в хорошем качестве
    Вы не можете начинать темы
    Вы не можете отвечать на сообщения
    Вы не можете редактировать свои сообщения
    Вы не можете удалять свои сообщения
    Вы не можете голосовать в опросах
    Вы не можете прикреплять файлы к сообщениям
    Вы можете скачивать файлы
    Коробка / The Box [2021 г., драма, WEB-DLRip, Профессиональный многоголосый закадровый "iTunes"] смотреть онлайн, скачать торрент picoco.icu