Присоединяйтесь к нам в Telegram!, здесь всегда актуальный адрес сайта, оперативная поддержка и многое другое!!

>

5.9

iTunes

7.4

iTunes

9.4

1 сезон

1

7.4

2 сезон

7.2

iTunes

7.3

1 сезон

13

6.1

iTunes

8.3

GOG

30

ULTIMATE

pack

9.9

Лицензия

ВАЖНО

ИГРА 18+

pack

7.3

RePack

MK11

7.7

RePack

jed

7.8

RePack

fifa19

8.5

RePack

RDR2

RePack

NEED FOR SPEED™ PAYBACK

5 сезон

9 сезон

Бесстыжие 9 сезон

Все сериалы

все сериалы на PB.wtf

RePack

FAR CRY 5

Anonymous, добрый вечер, мы катастрофически не успеваем собрать деньги на оплату серверов, помогите нам пожалуйста 5,10,15р., для нас важна любая помощь . В качестве благодарности мы отключим Вам всю рекламу на сайте (укажите свой ник в строку Ваше имя)!

×
  
Magnet ссылка

Нечестивые / The Unholy (Эван Спилиотопулос) [2021, Ужасы, HDRip-AVC] MVO [HDRezka Studio] от MediaBit pb.wtf

Нечестивые через торрент pb.wtf

Размер: 2.35 GB | Добавлен: 5 мес. 16 д. назад | Торрент скачан:111 раз
Смотреть онлайн Нечестивые | Скачать    Ребята, помогите собрать деньги на оплату серверов!!!

14-06-2021 16:46 Нечестивые Скачать торрент  


Нечестивые / The Unholy
Информация о фильме:
Название: Нечестивые
Оригинальное название: The Unholy
Год выхода: 2021
Жанр: Ужасы
Режиссер: Эван Спилиотопулос
В ролях: Джеффри Дин Морган, Кэри Элвис, Уильям Сэдлер, Кэти Аселтон, Кристин Адамс, Диого Моргадо, Селеста Олива, Киара Пикардо, Жанель Фейгли, Марина Мазепа, Гизела Чипе

Описание: На дереве, где 150 лет назад была повешена и сожжена обвинённая в колдовстве, глухонемая племянница провинциального священника видит Деву Марию. Случайным свидетелем произошедшего становится репортёр Джерри Фенн, приехавший в этот городок за очередной оккультной историей. На следующий день девушка обретает слух и возможность говорить, а вскоре излечивает больного мальчика. Молва расползается, Ватикан присылает представителя зафиксировать чудо, епископ планирует сделать из дерева святыню, а репортёр Фенн, изучая историю городка, находит много подозрительного.



Страна: США
Студия: Ghost House Pictures, Screen Gems
Продолжительность: 01:39:24
Перевод: Профессиональный (многоголосый, закадровый) - HDRezka Studio



Информация о файле:
Кодек: AVC
Формат: MKV
Качество: HDRip-AVC
Видео: MPEG-4 AVC, 1024x428, 23,976 fps, 2099 kbps
Аудио RU: AC3, 6 ch, 48 kHz, 448 kbps
Аудио EN: AC3, 6 ch, 48 kHz, 448 kbps
Аудио UKR: AC3, 6 ch, 48 kHz, 384 kbps
Субтитры: Русские (Forced), украинские (Forced), английские
Навигация по главам: Да

x264 info: frame I:1254 Avg QP: 9.16 size: 95837
x264 info: frame P:28884 Avg QP:12.39 size: 27111
x264 info: frame B:112877 Avg QP:16.04 size: 5857
General
Unique ID : 205563842881391617309114594359935318850 (0x9AA627F2D167DB00FBABE384FF893B42)
Complete name : D:uTorrentРипы wolf1245Necestivije.Unholy.2021.MVO.HDRip-AVC.[wolf1245.MediaBit].mkv
Format : Matroska
Format version : Version 4
File size : 2.35 GiB
Duration : 1 h 39 min
Overall bit rate : 3 380 kb/s
Movie name : Necestivije.Unholy.2021.MVO.HDRip-AVC.[wolf1245.MediaBit]
Encoded date : UTC 2021-06-14 16:28:22
Writing application : mkvmerge v58.0.0 ('Supper's Ready') 64-bit
Writing library : libebml v1.4.2 + libmatroska v1.6.4
Video
ID : 1
Format : AVC
Format/Info : Advanced Video Codec
Format profile : High@L4.1
Format settings : CABAC / 14 Ref Frames
Format settings, CABAC : Yes
Format settings, Reference frames : 14 frames
Codec ID : V_MPEG4/ISO/AVC
Duration : 1 h 39 min
Bit rate : 2 099 kb/s
Width : 1 024 pixels
Height : 428 pixels
Display aspect ratio : 2.40:1
Frame rate mode : Constant
Frame rate : 23.976 (24000/1001) FPS
Color space : YUV
Chroma subsampling : 4:2:0
Bit depth : 8 bits
Scan type : Progressive
Bits/(Pixel*Frame) : 0.200
Stream size : 1.46 GiB (62%)
Title : .[wolf1245.MediaBit]
Writing library : x264 core 157 r2958 57baac4
Encoding settings : cabac=1 / ref=14 / deblock=1:-2:-2 / analyse=0x3:0x133 / me=umh / subme=11 / psy=1 / psy_rd=1.00:0.05 / mixed_ref=1 / me_range=48 / chroma_me=1 / trellis=2 / 8x8dct=1 / cqm=0 / deadzone=21,11 / fast_pskip=1 / chroma_qp_offset=-3 / threads=10 / lookahead_threads=2 / sliced_threads=0 / nr=0 / decimate=1 / interlaced=0 / bluray_compat=0 / constrained_intra=0 / bframes=12 / b_pyramid=2 / b_adapt=2 / b_bias=0 / direct=3 / weightb=1 / open_gop=0 / weightp=2 / keyint=240 / keyint_min=24 / scenecut=40 / intra_refresh=0 / rc_lookahead=60 / rc=2pass / mbtree=1 / bitrate=2099 / ratetol=1.0 / qcomp=0.60 / qpmin=0 / qpmax=69 / qpstep=4 / cplxblur=20.0 / qblur=0.5 / vbv_maxrate=50000 / vbv_bufsize=62500 / nal_hrd=none / filler=0 / ip_ratio=1.40 / aq=1:0.90
Language : English
Default : Yes
Forced : No
Color range : Limited
Color primaries : BT.709
Matrix coefficients : BT.709
Audio #1
ID : 2
Format : AC-3
Format/Info : Audio Coding 3
Commercial name : Dolby Digital
Codec ID : A_AC3
Duration : 1 h 39 min
Bit rate mode : Constant
Bit rate : 448 kb/s
Channel(s) : 6 channels
Channel layout : L R C LFE Ls Rs
Sampling rate : 48.0 kHz
Frame rate : 31.250 FPS (1536 SPF)
Bit depth : 16 bits
Compression mode : Lossy
Stream size : 319 MiB (13%)
Title : MVO | HDRezka Studio
Language : Russian
Service kind : Complete Main
Default : Yes
Forced : No
Audio #2
ID : 3
Format : AC-3
Format/Info : Audio Coding 3
Commercial name : Dolby Digital
Codec ID : A_AC3
Duration : 1 h 39 min
Bit rate mode : Constant
Bit rate : 384 kb/s
Channel(s) : 6 channels
Channel layout : L R C LFE Ls Rs
Sampling rate : 48.0 kHz
Frame rate : 31.250 FPS (1536 SPF)
Bit depth : 16 bits
Compression mode : Lossy
Stream size : 273 MiB (11%)
Title : MVO | HDRezka Studio
Language : Ukrainian
Service kind : Complete Main
Default : No
Forced : No
Audio #3
ID : 4
Format : AC-3
Format/Info : Audio Coding 3
Commercial name : Dolby Digital
Codec ID : A_AC3
Duration : 1 h 39 min
Bit rate mode : Constant
Bit rate : 448 kb/s
Channel(s) : 6 channels
Channel layout : L R C LFE Ls Rs
Sampling rate : 48.0 kHz
Frame rate : 31.250 FPS (1536 SPF)
Bit depth : 16 bits
Compression mode : Lossy
Stream size : 319 MiB (13%)
Title : Original
Language : English
Service kind : Complete Main
Default : No
Forced : No
Text #1
ID : 5
Format : UTF-8
Codec ID : S_TEXT/UTF8
Codec ID/Info : UTF-8 Plain Text
Duration : 1 h 31 min
Bit rate : 3 b/s
Count of elements : 49
Stream size : 2.37 KiB (0%)
Title : Forced
Language : Russian
Default : Yes
Forced : No
Text #2
ID : 6
Format : UTF-8
Codec ID : S_TEXT/UTF8
Codec ID/Info : UTF-8 Plain Text
Duration : 1 h 30 min
Bit rate : 2 b/s
Count of elements : 23
Stream size : 1.45 KiB (0%)
Title : Forced
Language : Ukrainian
Default : No
Forced : No
Text #3
ID : 7
Format : UTF-8
Codec ID : S_TEXT/UTF8
Codec ID/Info : UTF-8 Plain Text
Duration : 1 h 30 min
Bit rate : 47 b/s
Count of elements : 955
Stream size : 31.5 KiB (0%)
Language : English
Default : No
Forced : No
Menu
00:00:00.000 : :Chapter 01
00:02:45.082 : :Chapter 02
00:07:05.050 : :Chapter 03
00:11:54.714 : :Chapter 04
00:17:48.025 : :Chapter 05
00:23:42.421 : :Chapter 06
00:29:03.617 : :Chapter 07
00:36:45.036 : :Chapter 08
00:43:14.050 : :Chapter 09
00:49:55.117 : :Chapter 10
00:57:07.841 : :Chapter 11
01:01:48.872 : :Chapter 12
01:09:04.640 : :Chapter 13
01:15:15.010 : :Chapter 14
01:23:37.471 : :Chapter 15
01:30:03.398 : :Chapter 16
Релиз от: &
Автор релиза:
pb.wtf



Скачать Нечестивые через торрент https://i6.imageban.ru/out/2021/06/14/ccbfde45c87b2fd4909f4fa71f7d1351.png Скачать, смотреть онлайн Нечестивые бесплантно в хорошем качестве Описание: На дереве, где 150 лет назад была повешена и сожжена обвинённая в колдовстве, глухонемая племянница провинциального священника ... 10 10 5
Торрент: Зарегистрирован [2021-06-14 16:46] · скачан: 111 раз
Статус: √ проверено
Размер: 2.35 GB
Как cкачать? Как скачать Нечестивые через торрент | UTorrent

28-11-2019 20:33  

Отключить всю рекламу на сайте

    Дорогой пользователь! Огромная просьба, поблагодарите релизера, оцените раздачу и оставьте свои комментарий, если Вы скачали Нечестивые через торрент бесплатно!
    Комментировать посты могут только пользователи прошедшие не сложную регистрацию
    Показать сообщения:    

    Нечестивые через торрент
    Скачать бесплатно Нечестивые
    Нечестивые скачать торрент
    Нечестивые смотреть онлайн
    Cкачать фильм Нечестивые бесплатно
    Нечестивые скачать торрент в хорошем качестве
    Нечестивые смотреть онлайн бесплатно в хорошем качестве


    Вы не можете начинать темы
    Вы не можете отвечать на сообщения
    Вы не можете редактировать свои сообщения
    Вы не можете удалять свои сообщения
    Вы не можете голосовать в опросах
    Вы не можете прикреплять файлы к сообщениям
    Вы можете скачивать файлы